<?xml version="1.0" standalone="no"?>
<!DOCTYPE svg PUBLIC "-//W3C//DTD SVG 1.1//EN" "http://www.w3.org/Graphics/SVG/1.1/DTD/svg11.dtd" >
<svg xmlns="http://www.w3.org/2000/svg">
<metadata>
This is a custom SVG webfont generated by Font Squirrel.
Designer    : Georg Seifert
Foundry     : Georg Seifert
Foundry URL : www.fonts.info
</metadata>
<defs>
<font id="webfontzQcEAD08" horiz-adv-x="463" >
<font-face units-per-em="1000" ascent="800" descent="-200" />
<missing-glyph horiz-adv-x="236" />
<glyph unicode="&#xfb01;" horiz-adv-x="512" d="M409 786l-24 -63q-67 37 -125 37q-51 0 -71 -33t-20 -100v-88h269v-539h-85v475h-184v-475h-85v475h-63v64h63v88q0 200 170 200q67 0 155 -41z" />
<glyph unicode="&#xfb02;" horiz-adv-x="515" d="M442 0h-85v743q-53 18 -98 18q-50 0 -70 -34t-20 -101v-87h117v-64h-117v-475h-85v475h-62v64h62v88q0 200 175 200q85 0 183 -43v-784z" />
<glyph unicode=" "  horiz-adv-x="236" />
<glyph unicode="&#x09;" horiz-adv-x="236" />
<glyph unicode="&#xa0;" horiz-adv-x="236" />
<glyph unicode="!" horiz-adv-x="260" d="M205 739l-8 -519h-79l-7 519h94zM225 45q0 -25 -16.5 -42t-39.5 -17q-25 0 -41.5 17t-16.5 42t17 42t41 17q23 0 39.5 -17t16.5 -42z" />
<glyph unicode="&#x22;" horiz-adv-x="347" d="M136 751l-13 -166h-65l-12 165v102h90v-101zM301 751l-12 -166h-66l-10 165v102h88v-101z" />
<glyph unicode="#" horiz-adv-x="576" d="M527 153h-96v-250h-81v250h-122v-250h-80v250h-100v71h99v206h-99v70h100v243h80v-243h121v243h82v-243h97v-70h-97v-206h96v-71zM349 224v206h-121v-206h121z" />
<glyph unicode="$" horiz-adv-x="470" d="M181 -136l6 127q-90 9 -153 46l28 80q58 -43 129 -54l15 284q-38 32 -57 50t-45.5 49.5t-38 64t-11.5 69.5q0 76 49 120.5t124 50.5l6 109h66l-6 -112q50 -6 110 -31l-23 -70q-41 21 -91 29l-15 -268q38 -32 58 -51t47 -51.5t39.5 -67t12.5 -74.5q0 -76 -49 -121.5 t-130 -52.5l-7 -126h-64zM341 161q0 63 -73 133l-12 -231q39 8 62 33.5t23 64.5zM144 587q0 -60 68 -125l11 214q-35 -6 -57 -28.5t-22 -60.5z" />
<glyph unicode="%" horiz-adv-x="617" d="M559 590l-452 -535l-48 51l452 536zM294 550q0 -58 -35 -102.5t-95 -44.5q-59 0 -92.5 43t-33.5 104q0 55 32.5 100t96.5 45q60 0 93.5 -38.5t33.5 -106.5zM226 550q0 37 -17 60t-43 23q-30 0 -44.5 -25.5t-14.5 -57.5q0 -36 15 -60.5t44 -24.5q30 0 45 25t15 60z M577 133q0 -58 -33.5 -102.5t-94.5 -44.5q-59 0 -93.5 43t-34.5 104q0 55 32.5 100t96.5 45q61 0 94 -38t33 -107zM509 133q0 38 -16.5 60.5t-43.5 22.5q-30 0 -44.5 -25t-14.5 -58q0 -36 15 -60t44 -24q30 0 45 25t15 59z" />
<glyph unicode="&#x26;" horiz-adv-x="550" d="M444 563q0 -26 -11 -51.5t-22.5 -43t-39.5 -42.5l-41 -36l-50 -37l54 -61l58 -61l79 -82l84 -86l-56 -68l-82 85q-93 -93 -196 -93q-83 0 -127 48.5t-44 125.5q0 110 110 202q-54 81 -54 162t44.5 127.5t128.5 46.5q75 0 120 -37t45 -99zM231 54q60 0 136 78 q-120 124 -156 166q-75 -68 -75 -133q0 -45 26 -78t69 -33zM191 531q0 -52 42 -115q31 21 48 34t37.5 32t29.5 37.5t9 38.5q0 35 -25.5 54t-56.5 19h-3q-36 0 -58 -27q-23 -29 -23 -73z" />
<glyph unicode="'" horiz-adv-x="182" d="M136 751l-13 -166h-65l-12 165v102h90v-101z" />
<glyph unicode="(" horiz-adv-x="273" d="M282 -166l-60 -39q-163 227 -163 538q0 94 13.5 174.5t40.5 148.5t50 111t60 102l58 -41q-27 -48 -45.5 -86t-43 -103t-37.5 -142.5t-13 -161.5q0 -276 140 -501z" />
<glyph unicode=")" horiz-adv-x="269" d="M210 333q0 -90 -12 -167.5t-37.5 -145t-48 -114t-60.5 -111.5l-60 40q67 124 100.5 232.5t33.5 264.5q0 106 -21.5 202.5t-44.5 149.5t-69 146l63 39q74 -124 115 -245t41 -291z" />
<glyph unicode="*" horiz-adv-x="488" d="M303 538l-14 -192l142 73l27 -82l-158 -50l109 -149l-69 -51l-82 159l-76 -160l-70 50l105 151l-155 46l26 82l142 -68l-17 191h90z" />
<glyph unicode="+" horiz-adv-x="488" d="M439 249h-156v-212h-78v212h-157v72h157v201h78v-201h156v-72z" />
<glyph unicode="," horiz-adv-x="222" d="M95 -163l-52 44q49 58 49 109q0 19 -13 39.5t-13 40.5t13.5 33.5t35.5 13.5q30 0 47.5 -27t17.5 -70q0 -90 -85 -183z" />
<glyph unicode="-" horiz-adv-x="369" d="M315 291h-264v71h264v-71z" />
<glyph unicode="." horiz-adv-x="224" d="M176 45q0 -25 -16.5 -42t-39.5 -17q-25 0 -41.5 17t-16.5 42t17 42t41 17q23 0 39.5 -17t16.5 -42z" />
<glyph unicode="/" horiz-adv-x="335" d="M339 794l-244 -906l-76 24l243 906z" />
<glyph unicode="0" horiz-adv-x="530" d="M485 334q0 -67 -11 -125t-35.5 -109.5t-70 -81.5t-107.5 -30q-63 0 -107.5 30.5t-67 82.5t-32 106.5t-9.5 116.5q0 66 11.5 124.5t36.5 110.5t71 82.5t108 30.5q50 0 88.5 -20.5t61.5 -53.5t37.5 -78.5t20 -90.5t5.5 -95zM399 327q0 54 -6.5 100t-21 87t-41.5 64.5 t-64 23.5q-47 0 -78.5 -41.5t-43 -99.5t-11.5 -131q0 -271 132 -271q37 0 64 22.5t42 62t21.5 85t6.5 98.5z" />
<glyph unicode="1" horiz-adv-x="323" d="M245 0h-86v560l-118 -68l-29 60l165 113h68v-665z" />
<glyph unicode="2" horiz-adv-x="423" d="M382 0h-355v55q109 128 179.5 240t70.5 201q0 52 -26 79.5t-74 27.5q-63 0 -126 -34l-21 65q80 40 159 40q88 0 131.5 -45.5t43.5 -123.5q0 -53 -19.5 -111.5t-52 -112.5t-64.5 -99l-67 -89q-12 -14 -17 -21h238v-72z" />
<glyph unicode="3" horiz-adv-x="410" d="M341 512q0 -112 -96 -165q60 -13 92 -64t32 -122q0 -121 -80.5 -189.5t-207.5 -68.5q-33 0 -54 4v72q27 -3 59 -3q81 0 136.5 50t55.5 135q0 66 -38 103q-33 32 -100 32q-12 0 -26 -1l-40 -3l-3 66l40 3q64 6 102.5 43t38.5 96q0 50 -28 75t-74 25q-54 0 -108 -22l-19 68 q71 25 138 25q82 0 131 -40.5t49 -118.5z" />
<glyph unicode="4" horiz-adv-x="426" d="M182 697h82l-161 -469h164l12 226h66v-226h71v-70h-71v-158h-80v158h-237l-18 57z" />
<glyph unicode="5" horiz-adv-x="412" d="M151 594l-10 -200q29 3 47 3q86 0 138.5 -52t52.5 -161q0 -134 -77.5 -205t-209.5 -71q-30 0 -47 3v73q19 -4 45 -4q91 0 145.5 54t54.5 150q0 147 -136 147q-48 0 -93 -12l17 341h283v-66h-210z" />
<glyph unicode="6" horiz-adv-x="511" d="M417 673q-25 3 -47 3q-88 0 -140 -50q-66 -64 -82 -214q58 38 126 38q90 0 138 -59.5t48 -164.5q0 -106 -54.5 -173t-147.5 -67q-41 0 -74 14t-54.5 39t-36.5 55t-23 67.5t-11 70.5t-3 68q0 449 306 449q35 0 53 -3zM256 383q-47 0 -113 -41v-41q0 -244 117 -244 q54 0 82 47t28 119q0 160 -114 160z" />
<glyph unicode="7" horiz-adv-x="359" d="M250 589h-253v71h342l8 -50l-221 -689h-90z" />
<glyph unicode="8" horiz-adv-x="482" d="M42 175q0 117 124 215q-104 80 -104 182q0 82 53 131t128 49q74 0 126.5 -46.5t52.5 -124.5q0 -58 -32 -108.5t-77 -85.5q60 -42 93.5 -89t33.5 -120q0 -92 -58 -142t-141 -50t-141 50.5t-58 138.5zM356 175q0 54 -33.5 91t-99.5 82q-96 -82 -96 -165q0 -55 33 -91.5 t81 -36.5q47 0 81 33.5t34 86.5zM146 577q0 -49 27.5 -82.5t79.5 -67.5q85 67 85 147q0 45 -29 78t-69 33q-39 0 -66.5 -30.5t-27.5 -77.5z" />
<glyph unicode="9" horiz-adv-x="511" d="M90 -15q24 -3 46 -3q88 0 140 50q66 64 82 213q-57 -37 -125 -37q-90 0 -138 59.5t-48 164.5q0 106 54.5 173t147.5 67q41 0 74 -14t54.5 -39t36.5 -55t23 -67.5t11 -70.5t3 -68q0 -449 -306 -449q-35 0 -53 3zM251 275q48 0 112 41q1 13 1 41q0 244 -117 244 q-54 0 -82 -47t-28 -119q0 -160 114 -160z" />
<glyph unicode=":" horiz-adv-x="255" d="M195 45q0 -25 -16.5 -42t-39.5 -17q-25 0 -41.5 17t-16.5 42t17 42t41 17q23 0 39.5 -17t16.5 -42zM195 494q0 -25 -16.5 -42t-39.5 -17q-25 0 -41.5 17t-16.5 42t17 42t41 17q23 0 39.5 -17t16.5 -42z" />
<glyph unicode=";" horiz-adv-x="255" d="M121 -163l-52 44q49 58 49 109q0 19 -13 39.5t-13 40.5t13.5 33.5t35.5 13.5q30 0 47.5 -27t17.5 -70q0 -90 -85 -183zM195 494q0 -25 -16.5 -42t-39.5 -17q-25 0 -41.5 17t-16.5 42t17 42t41 17q23 0 39.5 -17t16.5 -42z" />
<glyph unicode="&#x3c;" horiz-adv-x="442" d="M334 571l47 -54l-218 -231l217 -231l-45 -56l-278 287z" />
<glyph unicode="=" horiz-adv-x="488" d="M439 346h-391v72h391v-72zM439 153h-391v72h391v-72z" />
<glyph unicode="&#x3e;" horiz-adv-x="488" d="M130 571l277 -285l-280 -287l-43 56l214 231l-216 232z" />
<glyph unicode="?" horiz-adv-x="393" d="M147 216v59q0 48 12.5 87t30.5 65.5t36 50t30.5 50.5t12.5 57q0 40 -21.5 61t-57.5 21q-49 0 -109 -42l-29 61q77 51 155 51t114 -42t36 -105q0 -46 -19.5 -88t-43 -69.5t-43 -70.5t-19.5 -92v-54h-85zM247 45q0 -25 -16 -42t-40 -17t-40.5 17t-16.5 42t16.5 42t40.5 17 t40 -17t16 -42z" />
<glyph unicode="@" horiz-adv-x="858" d="M395 -11q-50 0 -84 36t-48 86.5t-14 108.5q0 126 60 212t150 86q60 0 127 -43v-315q0 -107 49 -107q40 0 60.5 66t20.5 165q0 163 -68 262t-195 99q-135 0 -224 -106t-89 -297q0 -173 77 -282t222 -109q90 0 168 34l20 -65q-93 -34 -193 -34q-178 0 -275.5 125t-97.5 328 q0 214 108.5 343t277.5 129q154 0 251.5 -110t97.5 -305q0 -56 -9 -107t-28.5 -97.5t-55.5 -74.5t-85 -28q-44 0 -65 22t-28 63q-20 -38 -54 -61.5t-76 -23.5zM508 148v292q-24 14 -50 14q-60 0 -94 -65t-34 -158q0 -75 23.5 -125.5t64.5 -50.5q29 0 55 27t35 66z" />
<glyph unicode="A" horiz-adv-x="530" d="M435 0l-63 215h-224l-61 -215h-86l211 739h97l220 -739h-94zM258 661l-92 -377h187z" />
<glyph unicode="B" horiz-adv-x="523" d="M497 210q0 -118 -63 -164t-182 -46h-159v739h162q218 0 218 -185q0 -113 -86 -158q110 -50 110 -186zM406 211q0 143 -158 143h-70v-284h79q75 0 112 31t37 110zM382 549q0 120 -129 120h-75v-249h60q144 0 144 129z" />
<glyph unicode="C" d="M446 89l10 -73q-67 -28 -143 -28q-271 0 -271 376q0 388 277 388q69 0 136 -24l-15 -72q-13 7 -49 15.5t-71 8.5q-188 0 -188 -306q0 -314 183 -314q66 0 131 29z" />
<glyph unicode="D" horiz-adv-x="608" d="M563 375q0 -64 -8 -116.5t-28.5 -102t-53.5 -83t-86.5 -53.5t-124.5 -20h-170v739h174q297 0 297 -364zM474 371q0 67 -9.5 117t-32.5 92.5t-67.5 65t-108.5 22.5h-79v-597h90q51 0 88.5 16t60 42t36 66t18 81t4.5 95z" />
<glyph unicode="E" horiz-adv-x="498" d="M468 0h-376v739h358v-71h-273v-248h246v-70h-246v-279h291v-71z" />
<glyph unicode="F" horiz-adv-x="434" d="M438 668h-261v-272h229v-70h-229v-326h-85v739h346v-71z" />
<glyph unicode="G" horiz-adv-x="592" d="M532 335v-295q-91 -53 -205 -53q-74 0 -128 27t-86 77.5t-47 116t-15 148.5q0 184 73 290t221 106q82 0 175 -33l-19 -71q-77 32 -158 32q-202 0 -202 -315q0 -306 191 -306q60 0 118 27v249h82z" />
<glyph unicode="H" horiz-adv-x="646" d="M554 0h-86v353h-289v-353h-86v739h86v-315h289v315h86v-739z" />
<glyph unicode="I" horiz-adv-x="270" d="M177 0h-84v739h84v-739z" />
<glyph unicode="J" horiz-adv-x="321" d="M237 739v-452q0 -69 -11 -119.5t-28 -81.5t-48.5 -54t-60.5 -34.5t-77 -25.5l-16 73q34 11 55.5 21.5t43 28.5t32.5 43t18 62.5t7 89.5v449h85z" />
<glyph unicode="K" horiz-adv-x="540" d="M529 739l-218 -312l243 -427h-110l-186 359l-80 -116v-243h-86v739h86v-377l240 377h111z" />
<glyph unicode="L" horiz-adv-x="458" d="M453 0h-361v739h85v-665h276v-74z" />
<glyph unicode="M" horiz-adv-x="753" d="M693 0h-87l-28 565l-181 -565h-49l-182 565l-29 -565h-76l42 739h83l190 -584l194 584h80z" />
<glyph unicode="N" horiz-adv-x="666" d="M574 0h-63l-337 566v-566h-82v739h66l335 -558v558h81v-739z" />
<glyph unicode="O" horiz-adv-x="624" d="M580 384q0 -397 -276 -397q-260 0 -260 368q0 79 13.5 146t44 125.5t86 92t131.5 33.5q73 0 125.5 -30t81 -83.5t41.5 -116.5t13 -138zM490 380q0 301 -176 301q-181 0 -181 -322q0 -301 175 -301q182 0 182 322z" />
<glyph unicode="P" horiz-adv-x="512" d="M484 511q0 -114 -58.5 -176.5t-167.5 -62.5q-53 0 -81 9v-281h-86v739h158q235 0 235 -228zM392 503q0 82 -35 123.5t-117 41.5h-63v-317q31 -9 71 -9q77 0 110.5 40.5t33.5 120.5z" />
<glyph unicode="Q" horiz-adv-x="627" d="M580 384q0 -306 -166 -377q61 -21 151 -55l137 -52q47 -17 109.5 -31t116.5 -14q51 0 127 10l-5 -67q-69 -9 -129 -9q-69 0 -150.5 19.5t-143.5 43.5l-170 67q-108 43 -180 69q-233 18 -233 367q0 79 13.5 146t44 125.5t86 92t131.5 33.5q73 0 125.5 -30t81 -83.5 t41.5 -116.5t13 -138zM490 380q0 301 -176 301q-181 0 -181 -322q0 -301 175 -301q182 0 182 322z" />
<glyph unicode="R" horiz-adv-x="530" d="M92 739h147q123 0 181.5 -48.5t58.5 -153.5q0 -152 -121 -203l143 -334h-102l-119 312q-33 -5 -77 -5h-26v-307h-85v739zM177 667v-291q12 -1 24 -1q31 0 57 5q35 5 66.5 21t48.5 49.5t17 82.5q0 73 -37 105q-35 30 -106 30h-9z" />
<glyph unicode="S" horiz-adv-x="454" d="M392 718l-20 -71q-66 33 -132 33q-47 0 -78.5 -24t-31.5 -73q0 -37 22 -70.5t55 -57.5l72 -54q39 -30 72 -59.5t55 -74.5t22 -99q0 -89 -60 -134.5t-150 -45.5q-106 0 -194 47l25 80q85 -55 170 -55q54 0 87 28.5t33 78.5q0 40 -22 75t-55 60l-72 54q-39 30 -72 58.5 t-55 71t-22 92.5q0 84 56 129t139 45q72 0 156 -34z" />
<glyph unicode="T" horiz-adv-x="450" d="M468 667h-202v-667h-85v667h-199v72h486v-72z" />
<glyph unicode="U" horiz-adv-x="628" d="M541 739v-510q0 -108 -56 -175t-176 -67q-119 0 -170.5 66t-51.5 174v512h86v-494q0 -90 31.5 -136t110.5 -46t110 48.5t31 135.5v492h85z" />
<glyph unicode="V" horiz-adv-x="519" d="M529 739l-243 -739h-52l-244 739h94l178 -589l177 589h90z" />
<glyph unicode="W" horiz-adv-x="763" d="M746 739l-125 -739h-67l-173 594l-174 -594h-67l-124 739h91l85 -575l159 575h68l159 -575l86 575h82z" />
<glyph unicode="X" horiz-adv-x="492" d="M396 0l-154 315l-151 -315h-96l193 385l-179 354h103l140 -288l134 288h96l-181 -354l198 -385h-103z" />
<glyph unicode="Y" horiz-adv-x="476" d="M491 739l-210 -497v-242h-85v240l-212 499h97l159 -409l162 409h89z" />
<glyph unicode="Z" horiz-adv-x="443" d="M443 0h-432l-11 60l331 605h-304v74h402l11 -55l-331 -610h334v-74z" />
<glyph unicode="[" horiz-adv-x="299" d="M276 -132h-197v1002h197v-66h-123v-870h123v-66z" />
<glyph unicode="\" horiz-adv-x="278" d="M210 -112l-243 909l78 25l244 -910z" />
<glyph unicode="]" horiz-adv-x="298" d="M219 -132h-196v66h122v870h-122v66h196v-1002z" />
<glyph unicode="^" horiz-adv-x="475" d="M472 308h-94l-143 358l-141 -358h-94l197 453h78z" />
<glyph unicode="_" horiz-adv-x="429" d="M420 -78h-413v65h413v-65z" />
<glyph unicode="`" horiz-adv-x="122" d="M-35 752l76 41l94 -156l-56 -27z" />
<glyph unicode="a" horiz-adv-x="453" d="M385 0h-71l-9 52q-2 -1 -17.5 -12.5t-21 -15t-21 -12.5t-25.5 -12.5t-25.5 -7t-30.5 -3.5q-58 0 -89 41t-31 103q0 57 34.5 92.5t86.5 49t126 15.5v102q0 52 -18 73t-55 21q-53 0 -130 -38l-19 65q102 39 161 39q78 0 111.5 -40.5t33.5 -117.5v-242q0 -47 10 -152z M292 102v135q-27 -1 -47 -2.5t-44.5 -7.5t-40 -15.5t-26.5 -27.5t-11 -42q0 -41 19 -65.5t52 -24.5q32 0 98 50z" />
<glyph unicode="b" horiz-adv-x="511" d="M459 284q0 -137 -50.5 -217.5t-161.5 -80.5q-89 0 -166 49v777h85v-288q54 30 118 30q87 0 131 -69.5t44 -200.5zM370 279q0 102 -25 153t-82 51t-97 -30v-373q32 -23 83 -23q121 0 121 222z" />
<glyph unicode="c" horiz-adv-x="401" d="M361 86l18 -66q-56 -30 -133 -30q-95 0 -144.5 70.5t-49.5 206.5q0 141 53 211.5t152 70.5q71 0 120 -24l-18 -71q-46 27 -98 27q-121 0 -121 -204q0 -105 32 -161.5t90 -56.5q46 0 99 27z" />
<glyph unicode="d" horiz-adv-x="512" d="M431 812v-793q-94 -33 -177 -33q-201 0 -201 280q0 127 50.5 207.5t158.5 80.5q40 0 84 -13v271h85zM346 71v391q-35 21 -85 21q-120 0 -120 -214q0 -213 117 -213q47 0 88 15z" />
<glyph unicode="e" horiz-adv-x="460" d="M415 269h-285q1 -112 30.5 -163t98.5 -51q54 0 129 39l20 -65q-82 -42 -156 -42q-106 0 -152.5 72.5t-46.5 205.5q0 287 195 287q171 0 171 -227q0 -33 -4 -56zM244 491q-101 0 -113 -166h208v7q0 78 -20 118q-21 41 -75 41z" />
<glyph unicode="f" horiz-adv-x="288" d="M365 805l-18 -64q-46 19 -86 19q-49 0 -66.5 -26t-17.5 -90v-105h117v-64h-117v-475h-85v475h-62v64h62v105q0 94 36.5 138.5t120.5 44.5q58 0 116 -22z" />
<glyph unicode="g" horiz-adv-x="451" d="M225 554q42 0 75 -15q35 53 63.5 84t59.5 39l26 -66q-60 -16 -103 -91q44 -51 44 -140q0 -94 -45.5 -139t-120.5 -45q-25 0 -44 4q-12 -21 -12 -46q0 -30 27 -49.5t65 -32t76.5 -28.5t65.5 -51.5t27 -89.5q0 -37 -12.5 -65.5t-32 -46t-47 -29t-55 -15.5t-57.5 -4 q-88 0 -139.5 36.5t-51.5 109.5q0 20 5 39t9.5 32t17.5 31.5t18 24.5t22.5 25.5t19.5 22.5q-27 30 -27 76q0 38 29 81q-66 45 -66 159q0 96 44.5 142.5t118.5 46.5zM349 -120q0 26 -10.5 45.5t-31.5 32.5t-41 21t-49 18.5t-46 19.5q-35 -43 -50 -69.5t-15 -58.5 q0 -50 32.5 -75.5t86.5 -25.5q53 0 88.5 22t35.5 70zM316 365q0 127 -92 127q-89 0 -89 -126q0 -124 91 -124q90 0 90 123z" />
<glyph unicode="h" horiz-adv-x="529" d="M452 0h-85v368q0 109 -68 109q-56 0 -133 -70v-407h-85v813h85l-3 -334q90 73 167 73q122 0 122 -170v-382z" />
<glyph unicode="i" horiz-adv-x="257" d="M172 0h-86v539h86v-539zM183 713q0 -25 -16 -41t-39 -16q-24 0 -39 16t-15 41t15.5 41.5t38.5 16.5t39 -16.5t16 -41.5z" />
<glyph unicode="j" horiz-adv-x="257" d="M87 539h85v-524q0 -117 -39 -169.5t-152 -77.5l-16 69q46 12 70.5 27.5t38 50.5t13.5 95v529zM184 713q0 -25 -16 -41t-39 -16q-24 0 -39 16t-15 41t15.5 41.5t38.5 16.5t39 -16.5t16 -41.5z" />
<glyph unicode="k" horiz-adv-x="457" d="M444 539l-173 -230l188 -309h-104l-135 241l-57 -77v-164h-82v812h85v-403l-3 -137l178 267h103z" />
<glyph unicode="l" horiz-adv-x="252" d="M169 0h-86v812h86v-812z" />
<glyph unicode="m" horiz-adv-x="802" d="M445 0h-85v380q0 54 -15 75.5t-48 21.5q-57 0 -131 -71v-406h-85v539h76l6 -62q47 38 85 56.5t81 18.5q85 0 107 -78q95 78 173 78q56 0 85.5 -35t29.5 -121v-396h-85v380q0 54 -15 75.5t-48 21.5q-31 0 -61 -17t-70 -55v-9v-396z" />
<glyph unicode="n" horiz-adv-x="529" d="M451 0h-85v380q0 54 -15.5 75.5t-49.5 21.5q-58 0 -135 -71v-406h-85v539h76l6 -62q48 38 87 56.5t84 18.5q57 0 87 -35t30 -121v-396z" />
<glyph unicode="o" horiz-adv-x="510" d="M52 264q0 131 51 209.5t158 78.5q197 0 197 -275q0 -134 -50.5 -212t-155.5 -78q-102 0 -151 75t-49 202zM139 268q0 -212 115 -212q117 0 117 219q0 209 -114 209q-118 0 -118 -216z" />
<glyph unicode="p" horiz-adv-x="511" d="M81 -271v793q94 33 177 33q201 0 201 -280q0 -127 -50.5 -207.5t-158.5 -80.5q-40 0 -84 13v-271h-85zM166 470v-391q35 -21 85 -21q120 0 120 214q0 213 -117 213q-47 0 -88 -15z" />
<glyph unicode="q" horiz-adv-x="512" d="M55 257q0 137 50.5 217.5t161.5 80.5q89 0 166 -49v-777h-85v288q-54 -30 -118 -30q-87 0 -131 69.5t-44 200.5zM144 262q0 -102 25 -153t82 -51t97 30v373q-32 23 -83 23q-121 0 -121 -222z" />
<glyph unicode="r" horiz-adv-x="377" d="M349 549l-5 -78q-7 1 -14 1q-45 0 -82 -28q-42 -32 -83 -120v-324h-84v539h84v-111q40 68 79 98q33 24 84 24q10 0 21 -1z" />
<glyph unicode="s" horiz-adv-x="381" d="M208 555q50 0 119 -23l-16 -69q-57 24 -94 24t-58.5 -19t-21.5 -53q0 -31 21.5 -56t52.5 -45l62 -42q31 -22 52.5 -58t21.5 -83q0 -72 -45 -108.5t-117 -36.5q-79 0 -146 31l21 71q60 -35 117 -35q40 0 61.5 20.5t21.5 55.5q0 32 -21.5 58.5t-52.5 46.5l-62 43 q-31 22 -52.5 56t-21.5 77q0 69 45 107t113 38z" />
<glyph unicode="t" horiz-adv-x="311" d="M299 78l15 -70q-42 -21 -103 -21q-71 0 -99 34.5t-28 116.5v337h-62v64h62v179l85 21v-200h124v-64h-124v-326q0 -48 13 -68.5t45 -20.5q38 0 72 18z" />
<glyph unicode="u" horiz-adv-x="529" d="M79 539h85v-380q0 -54 15.5 -75t49.5 -21q60 0 135 70v406h85v-539h-76l-6 61q-49 -38 -87.5 -56t-82.5 -18q-57 0 -87.5 35t-30.5 122v395z" />
<glyph unicode="v" horiz-adv-x="448" d="M440 539l-181 -539h-68l-183 539h96l125 -424l119 424h92z" />
<glyph unicode="w" horiz-adv-x="659" d="M640 539l-124 -539h-58l-126 418l-127 -418h-58l-128 539h87l82 -403l117 403h58l118 -402l77 402h82z" />
<glyph unicode="x" horiz-adv-x="428" d="M117 539l115 -208l87 208h91l-129 -271l-14 -1l148 -267h-98l-115 207l-86 -208h-91l128 271h14l-148 269h98z" />
<glyph unicode="y" horiz-adv-x="435" d="M432 539l-172 -585q-29 -99 -75.5 -147.5t-128.5 -81.5l-31 69q62 28 97.5 66.5t56.5 106.5l16 52l-32 2l-156 518h93l123 -459l121 459h88z" />
<glyph unicode="z" horiz-adv-x="385" d="M360 0h-326l-3 53l226 420h-213v66h306l6 -53l-227 -419h231v-67z" />
<glyph unicode="{" horiz-adv-x="289" d="M252 -76l-13 -57q-32 11 -51 21t-38.5 29.5t-28 52.5t-8.5 82v137q0 82 -21.5 120.5t-67.5 45.5v50q89 12 89 144v168q0 78 38 115t88 41l9 -57q-63 -3 -63 -111v-157q0 -125 -73 -166q32 -15 52.5 -61.5t20.5 -107.5v-170q0 -52 15 -78t52 -41z" />
<glyph unicode="|" horiz-adv-x="254" d="M168 -107h-81v919h81v-919z" />
<glyph unicode="}" horiz-adv-x="289" d="M37 817l15 57q32 -11 50 -20.5t37.5 -29t28 -52.5t8.5 -82v-137q0 -82 21.5 -121t66.5 -46v-50q-39 -6 -63.5 -41.5t-24.5 -102.5v-167q0 -78 -38 -115.5t-87 -40.5l-9 57q64 3 64 110v157q0 125 72 166q-32 16 -52 62t-20 108v169q0 52 -16 78t-53 41z" />
<glyph unicode="~" horiz-adv-x="437" d="M387 345l25 -59q-54 -56 -119 -56q-35 0 -80 29.5t-78 29.5q-48 0 -87 -35l-22 59q58 51 116 51q40 0 87 -29.5t71 -29.5q37 0 87 40z" />
<glyph unicode="&#xa1;" horiz-adv-x="218" d="M71 -200l7 519h80l8 -519h-95zM181 492q0 -25 -16.5 -42t-39.5 -17q-25 0 -41.5 17t-16.5 42t17 42t41 17q23 0 39.5 -17t16.5 -42z" />
<glyph unicode="&#xa2;" horiz-adv-x="410" d="M367 89l19 -71q-49 -26 -97 -31v-121h-74v125q-79 16 -121 90t-42 190q0 117 43 188.5t120 89.5v120h74v-116q44 -4 96 -30l-21 -73q-50 33 -99 33q-58 0 -90.5 -52.5t-32.5 -152.5q0 -102 33 -161.5t93 -59.5q50 0 99 32z" />
<glyph unicode="&#xa3;" horiz-adv-x="447" d="M312 366h-113v-106q0 -78 -8.5 -122t-34.5 -69h266v-69h-375l-7 54q47 37 62 82.5t15 127.5v102h-76v67h76v108q0 89 47.5 148.5t129.5 59.5q65 0 132 -28l-22 -67q-48 24 -99 24q-52 0 -79 -37.5t-27 -101.5v-106h113v-67z" />
<glyph unicode="&#xa4;" horiz-adv-x="506" d="M393 421h-197q-1 -16 -1 -50q0 -23 1 -34h197v-64h-193q12 -102 49.5 -159t102.5 -57q48 0 107 31l22 -70q-75 -32 -136 -32q-106 0 -164.5 77t-72.5 210h-64v64h59v28q0 37 1 56h-60v66h67q19 121 78 193t164 72q60 0 122 -29l-23 -72q-49 29 -95 29q-127 0 -155 -193 h191v-66z" />
<glyph unicode="&#xa5;" horiz-adv-x="495" d="M476 739l-135 -309h107v-65h-135l-32 -73h167v-65h-161v-228h-86v228h-161v65h170l-31 73h-139v65h108l5 -6l-134 315h90l137 -373l138 373h92z" />
<glyph unicode="&#xa6;" horiz-adv-x="254" d="M87 295h81v-402h-81v402zM168 437h-81v376h81v-376z" />
<glyph unicode="&#xa7;" horiz-adv-x="468" d="M424 242q0 -84 -91 -143q45 -57 45 -118q0 -67 -46 -102t-121 -35q-84 0 -136 25l23 62q40 -22 106 -22q92 0 92 70q0 34 -25 68.5t-61 65.5l-72 63q-35 33 -60 75t-25 87q0 85 90 143q-51 63 -51 128q0 64 44 101.5t122 37.5q68 0 125 -22l-22 -60q-35 16 -98 16 q-43 0 -68.5 -18.5t-25.5 -52.5t26.5 -69.5t63.5 -67.5l75 -65q37 -34 63.5 -77.5t26.5 -89.5zM345 243q0 21 -8.5 41t-27 40.5t-34.5 35.5t-44.5 38.5t-43.5 37.5q-53 -48 -53 -95q0 -27 16.5 -55t31.5 -43.5t54 -49.5l51 -45q58 45 58 95z" />
<glyph unicode="&#xa8;" horiz-adv-x="300" d="M103 700q0 -23 -14.5 -38t-35.5 -15q-24 0 -39 14.5t-15 38.5q0 25 15 40t39 15q21 0 35.5 -15.5t14.5 -39.5zM298 700q0 -24 -15 -38.5t-39 -14.5q-21 0 -35.5 14.5t-14.5 38.5t14 39.5t36 15.5q23 0 38.5 -15.5t15.5 -39.5z" />
<glyph unicode="&#xa9;" horiz-adv-x="1016" d="M948 300q0 -146 -54 -265.5t-155.5 -190.5t-230.5 -71t-230 70t-155.5 189.5t-54.5 267.5q0 145 54 264.5t155.5 190.5t230.5 71t230.5 -71t155.5 -190.5t54 -264.5zM872 299q0 126 -45 229.5t-129.5 164.5t-190.5 61t-190 -61.5t-129 -165t-45 -228.5 q0 -195 101.5 -325.5t262.5 -130.5t263 131.5t102 324.5zM650 97l24 -68q-74 -43 -168 -43q-105 0 -172.5 85t-67.5 236q0 137 70 216.5t170 79.5q83 0 163 -43l-24 -70q-42 23 -69 32.5t-59 9.5q-26 0 -53 -11.5t-53 -35.5t-42 -70.5t-16 -107.5q0 -66 17 -117.5 t42.5 -78.5t51 -40.5t47.5 -13.5q39 0 68 9t71 31z" />
<glyph unicode="&#xaa;" horiz-adv-x="325" d="M285 227h-254v67h254v-67zM281 361h-63l-5 43q-2 -2 -16 -14l-19 -16l-18 -10q-11 -8 -20.5 -10.5t-20.5 -2.5q-44 0 -68 30t-24 76q0 68 45.5 95.5t132.5 29.5v42q0 72 -51 72q-38 0 -97 -31l-15 57q76 31 126 31q57 0 82.5 -36t25.5 -90v-174q0 -25 5 -92zM205 453v84 q-111 -2 -111 -75q0 -53 38 -53q31 0 73 44z" />
<glyph unicode="&#xab;" d="M139 272l107 -209l-62 -16l-140 225l140 226l61 -19zM409 88l-61 -18l-127 202l128 199l59 -19l-91 -179z" />
<glyph unicode="&#xac;" horiz-adv-x="531" d="M419 301h-381v70h452v-269h-70z" />
<glyph unicode="&#xad;" horiz-adv-x="369" d="M316 291h-264v71h264v-71z" />
<glyph unicode="&#xae;" horiz-adv-x="1016" d="M948 300q0 -146 -54 -265.5t-155.5 -190.5t-230.5 -71t-230 70t-155.5 189.5t-54.5 267.5q0 145 54 264.5t155.5 190.5t230.5 71t230.5 -71t155.5 -190.5t54 -264.5zM872 299q0 126 -45 229.5t-129.5 164.5t-190.5 61t-190 -61.5t-129 -165t-45 -228.5 q0 -195 101.5 -325.5t262.5 -130.5t263 131.5t102 324.5zM675 423q0 -111 -100 -156l121 -268h-85l-102 249q-29 -5 -57 -5q-12 0 -24 1v-245h-76v594h125q107 0 152.5 -51.5t45.5 -118.5zM597 419q0 52 -30 81.5t-109 29.5h-30v-228h3q166 0 166 117z" />
<glyph unicode="&#xaf;" horiz-adv-x="276" d="M275 632h-273v60h273v-60z" />
<glyph unicode="&#xb0;" horiz-adv-x="379" d="M328 658q0 -67 -41 -113t-100 -46q-60 0 -100 45.5t-40 113.5q0 66 41 112t99 46q59 0 100 -46t41 -112zM265 658q0 43 -23 72t-55 29t-54.5 -29.5t-22.5 -71.5q0 -43 22.5 -72.5t54.5 -29.5t55 29.5t23 72.5z" />
<glyph unicode="&#xb1;" horiz-adv-x="488" d="M439 313h-156v-193h-78v193h-157v70h157v197h78v-197h156v-70zM439 0h-391v72h391v-72z" />
<glyph unicode="&#xb2;" horiz-adv-x="285" d="M269 330h-242l-5 39l73 87q23 28 55 85t32 95q0 55 -50 55q-42 0 -87 -26l-17 56q59 31 115 31q55 0 84 -28t29 -82q0 -100 -142 -257h155v-55z" />
<glyph unicode="&#xb3;" horiz-adv-x="256" d="M245 452q0 -65 -39.5 -98.5t-108.5 -33.5q-41 0 -82 12l15 59q37 -14 65 -14q34 0 55 18.5t21 53.5q0 73 -85 73h-34l-1 50h22q33 0 57.5 18t24.5 52q0 23 -13.5 36t-36.5 13q-30 0 -65 -19l-19 53q53 25 100 25q49 0 80 -24.5t31 -71.5q0 -62 -53 -96q66 -25 66 -106z " />
<glyph unicode="&#xb4;" horiz-adv-x="122" d="M-17 632l93 162l67 -38l-110 -149z" />
<glyph unicode="&#xb5;" horiz-adv-x="520" d="M74 -273v812h86v-390q19 -41 45.5 -66.5t55.5 -25.5q39 0 67.5 43t28.5 111v328h85v-376q0 -75 10 -163h-76q-3 29 -5 62q-40 -76 -104 -76q-63 0 -107 55v-314h-86z" />
<glyph unicode="&#x3bc;" horiz-adv-x="520" d="M74 -273v812h86v-390q19 -41 45.5 -66.5t55.5 -25.5q39 0 67.5 43t28.5 111v328h85v-376q0 -75 10 -163h-76q-3 29 -5 62q-40 -76 -104 -76q-63 0 -107 55v-314h-86z" />
<glyph unicode="&#xb6;" horiz-adv-x="540" d="M382 -79v858h-86q-92 0 -145 -41.5t-53 -127.5q0 -45 19 -78t51 -50t65.5 -24.5t70.5 -7.5v-529h-80v462q-103 13 -157 76t-54 146q0 111 67 177.5t209 66.5h175v-928h-82z" />
<glyph unicode="&#xb7;" horiz-adv-x="240" d="M184 347q0 -25 -16.5 -42t-39.5 -17q-25 0 -41.5 17t-16.5 42t17 42t41 17q23 0 39.5 -17t16.5 -42z" />
<glyph unicode="&#xb8;" horiz-adv-x="247" d="M158 2l-10 -71q93 -19 93 -96q0 -49 -34.5 -71t-85.5 -22q-34 0 -69 10l12 46q29 -9 52 -9q64 0 64 50q0 26 -21 38.5t-65 15.5l13 109h51z" />
<glyph unicode="&#xb9;" horiz-adv-x="248" d="M194 328h-71l1 337l-91 -52l-20 51l124 84h57v-420z" />
<glyph unicode="&#xba;" horiz-adv-x="373" d="M336 227h-294v67h294v-67zM30 553q0 21 4 44.5t14.5 52t27 50.5t44.5 37t64 15q46 0 78 -20.5t46 -54t19 -62t5 -58.5q0 -32 -7 -64.5t-22.5 -65.5t-48 -53.5t-76.5 -20.5t-75 20t-46 53t-21 64t-6 63zM108 555q0 -22 2.5 -43t9.5 -44.5t22.5 -38t38.5 -14.5t38.5 14.5 t23 38t10.5 44.5t3 43q0 20 -3 40t-10 43t-23 37.5t-38 14.5q-29 0 -47 -25.5t-22.5 -53t-4.5 -56.5z" />
<glyph unicode="&#xbb;" horiz-adv-x="464" d="M218 481l62 17l140 -226l-141 -225l-61 18l107 207zM54 456l61 18l127 -202l-127 -199l-60 19l91 179z" />
<glyph unicode="&#xbc;" horiz-adv-x="622" d="M187 328h-71l1 337l-91 -52l-20 51l124 84h57v-420zM449 426h69l-103 -277h91l14 135h45l1 -135h45v-58h-45v-91h-70v91h-137l-17 49zM569 685l-442 -659l-54 49l444 661z" />
<glyph unicode="&#xbd;" horiz-adv-x="659" d="M561 685l-442 -659l-54 49l444 661zM647 0h-242l-5 40q98 114 129 169q32 57 32 97q0 55 -51 55q-42 0 -87 -26l-16 57q59 30 114 30q114 0 114 -110q0 -102 -141 -256h153v-56zM187 328h-71l1 337l-91 -52l-20 51l124 84h57v-420z" />
<glyph unicode="&#xbe;" horiz-adv-x="641" d="M586 685l-442 -659l-54 49l444 661zM245 452q0 -65 -39.5 -98.5t-108.5 -33.5q-41 0 -82 12l15 59q37 -14 65 -14q34 0 55 18.5t21 53.5q0 73 -85 73h-34l-1 50h22q33 0 57.5 18t24.5 52q0 23 -13.5 36t-36.5 13q-30 0 -65 -19l-19 53q53 25 100 25q49 0 80 -24.5 t31 -71.5q0 -62 -53 -96q66 -25 66 -106zM473 426h70l-103 -277h91l13 135h46v-135h46v-58h-46v-91h-69v91h-137l-17 49z" />
<glyph unicode="&#xbf;" horiz-adv-x="393" d="M262 323v-59q0 -48 -12.5 -87t-30.5 -65.5t-36 -50t-30.5 -50.5t-12.5 -57q0 -40 21.5 -61t57.5 -21q49 0 109 42l29 -61q-77 -51 -155 -51t-114 42t-36 105q0 46 19.5 88t43 69.5t43 70.5t19.5 92v54h85zM162 494q0 25 16 42t40 17t40.5 -17t16.5 -42t-16.5 -42 t-40.5 -17t-40 17t-16 42z" />
<glyph unicode="&#xc0;" horiz-adv-x="520" d="M430 0l-63 215h-224l-61 -215h-86l211 739h97l220 -739h-94zM253 661l-92 -377h187zM144 947l76 41l94 -155l-56 -27z" />
<glyph unicode="&#xc1;" horiz-adv-x="520" d="M430 0l-63 215h-224l-61 -215h-86l211 739h97l220 -739h-94zM253 661l-92 -377h187zM197 828l92 161l68 -39l-110 -147z" />
<glyph unicode="&#xc2;" horiz-adv-x="520" d="M430 0l-63 215h-224l-61 -215h-86l211 739h97l220 -739h-94zM253 661l-92 -377h187zM254 962l140 -121l-40 -40l-99 80l-97 -80l-41 35z" />
<glyph unicode="&#xc3;" horiz-adv-x="520" d="M430 0l-63 215h-224l-61 -215h-86l211 739h97l220 -739h-94zM253 661l-92 -377h187zM371 897l33 -39q-45 -50 -95 -50q-26 0 -55.5 15t-46.5 15q-24 0 -62 -30l-32 41q52 49 97 49q25 0 54.5 -14.5t47.5 -14.5q24 0 59 28z" />
<glyph unicode="&#xc4;" horiz-adv-x="520" d="M430 0l-63 215h-224l-61 -215h-86l211 739h97l220 -739h-94zM253 661l-92 -377h187zM409 863q0 -24 -16.5 -39t-41.5 -15q-21 0 -37 15.5t-16 38.5q0 24 15.5 40t37.5 16q25 0 41.5 -16t16.5 -40zM207 863q0 -24 -15.5 -39t-37.5 -15q-25 0 -40.5 15t-15.5 39t16 40 t40 16q23 0 38 -16t15 -40z" />
<glyph unicode="&#xc5;" horiz-adv-x="520" d="M357 802q0 -61 -44 -95l211 -707h-94l-63 215h-224l-61 -215h-86l201 705q-44 31 -44 97q0 48 29 81t72 33q45 0 74 -33.5t29 -80.5zM253 661l-92 -377h187zM302 802q0 27 -12.5 45.5t-35.5 18.5t-35 -18.5t-12 -45.5q0 -60 42 -63h5q23 0 35.5 18t12.5 45z" />
<glyph unicode="&#xc6;" horiz-adv-x="725" d="M700 0h-267l-34 231h-229l-98 -231h-101l344 739h354v-71h-257l39 -243h208v-70h-199l46 -284h194v-71zM391 298l-52 358l-137 -358h189z" />
<glyph unicode="&#xc7;" d="M446 89l10 -73q-58 -25 -133 -28l-8 -57q93 -19 93 -96q0 -49 -34.5 -71t-85.5 -22q-34 0 -69 10l12 46q29 -9 52 -9q64 0 64 50q0 26 -21 38.5t-65 15.5l11 98q-230 26 -230 373q0 388 277 388q69 0 136 -24l-15 -72q-13 7 -49 15.5t-71 8.5q-188 0 -188 -306 q0 -314 183 -314q66 0 131 29z" />
<glyph unicode="&#xc8;" horiz-adv-x="498" d="M468 0h-376v739h358v-71h-273v-248h246v-70h-246v-279h291v-71zM160 947l76 41l94 -155l-56 -27z" />
<glyph unicode="&#xc9;" horiz-adv-x="498" d="M468 0h-376v739h358v-71h-273v-248h246v-70h-246v-279h291v-71zM214 828l92 161l68 -39l-110 -147z" />
<glyph unicode="&#xca;" horiz-adv-x="498" d="M468 0h-376v739h358v-71h-273v-248h246v-70h-246v-279h291v-71zM271 962l140 -121l-40 -40l-99 80l-97 -80l-41 35z" />
<glyph unicode="&#xcb;" horiz-adv-x="498" d="M468 0h-376v739h358v-71h-273v-248h246v-70h-246v-279h291v-71zM223 863q0 -24 -15.5 -39t-37.5 -15q-25 0 -40.5 15t-15.5 39t16 40t40 16q23 0 38 -16t15 -40zM425 863q0 -24 -16.5 -39t-41.5 -15q-21 0 -37 15.5t-16 38.5q0 24 15.5 40t37.5 16q25 0 41.5 -16 t16.5 -40z" />
<glyph unicode="&#xcc;" horiz-adv-x="270" d="M177 0h-84v739h84v-739zM25 947l76 41l94 -155l-56 -27z" />
<glyph unicode="&#xcd;" horiz-adv-x="270" d="M177 0h-84v739h84v-739zM79 828l92 161l68 -39l-110 -147z" />
<glyph unicode="&#xce;" horiz-adv-x="270" d="M177 0h-84v739h84v-739zM136 962l140 -121l-40 -40l-99 80l-97 -80l-41 35z" />
<glyph unicode="&#xcf;" horiz-adv-x="270" d="M177 0h-84v739h84v-739zM88 863q0 -24 -15.5 -39t-37.5 -15q-25 0 -40.5 15t-15.5 39t16 40t40 16q23 0 38 -16t15 -40zM290 863q0 -24 -16.5 -39t-41.5 -15q-21 0 -37 15.5t-16 38.5q0 24 15.5 40t37.5 16q25 0 41.5 -16t16.5 -40z" />
<glyph unicode="&#xd0;" horiz-adv-x="608" d="M563 375q0 -64 -8 -116.5t-28.5 -102t-53.5 -83t-86.5 -53.5t-124.5 -20h-170v739h174q297 0 297 -364zM474 371q0 67 -9.5 117t-32.5 92.5t-67.5 65t-108.5 22.5h-79v-597h90q51 0 88.5 16t60 42t36 66t18 81t4.5 95zM412 832h-273v60h273v-60z" />
<glyph unicode="&#xd1;" horiz-adv-x="666" d="M574 0h-63l-337 566v-566h-82v739h66l335 -558v558h81v-739zM455 897l33 -39q-45 -50 -95 -50q-26 0 -55.5 15t-46.5 15q-24 0 -62 -30l-32 41q52 49 97 49q25 0 54.5 -14.5t47.5 -14.5q24 0 59 28z" />
<glyph unicode="&#xd2;" horiz-adv-x="624" d="M580 384q0 -397 -276 -397q-260 0 -260 368q0 79 13.5 146t44 125.5t86 92t131.5 33.5q73 0 125.5 -30t81 -83.5t41.5 -116.5t13 -138zM490 380q0 301 -176 301q-181 0 -181 -322q0 -301 175 -301q182 0 182 322zM206 947l76 41l94 -155l-56 -27z" />
<glyph unicode="&#xd3;" horiz-adv-x="624" d="M580 384q0 -397 -276 -397q-260 0 -260 368q0 79 13.5 146t44 125.5t86 92t131.5 33.5q73 0 125.5 -30t81 -83.5t41.5 -116.5t13 -138zM490 380q0 301 -176 301q-181 0 -181 -322q0 -301 175 -301q182 0 182 322zM260 828l92 161l68 -39l-110 -147z" />
<glyph unicode="&#xd4;" horiz-adv-x="624" d="M580 384q0 -397 -276 -397q-260 0 -260 368q0 79 13.5 146t44 125.5t86 92t131.5 33.5q73 0 125.5 -30t81 -83.5t41.5 -116.5t13 -138zM490 380q0 301 -176 301q-181 0 -181 -322q0 -301 175 -301q182 0 182 322zM317 962l140 -121l-40 -40l-99 80l-97 -80l-41 35z" />
<glyph unicode="&#xd5;" horiz-adv-x="624" d="M580 384q0 -397 -276 -397q-260 0 -260 368q0 79 13.5 146t44 125.5t86 92t131.5 33.5q73 0 125.5 -30t81 -83.5t41.5 -116.5t13 -138zM490 380q0 301 -176 301q-181 0 -181 -322q0 -301 175 -301q182 0 182 322zM433 897l33 -39q-45 -50 -95 -50q-26 0 -55.5 15 t-46.5 15q-24 0 -62 -30l-32 41q52 49 97 49q25 0 54.5 -14.5t47.5 -14.5q24 0 59 28z" />
<glyph unicode="&#xd6;" horiz-adv-x="624" d="M580 384q0 -397 -276 -397q-260 0 -260 368q0 79 13.5 146t44 125.5t86 92t131.5 33.5q73 0 125.5 -30t81 -83.5t41.5 -116.5t13 -138zM490 380q0 301 -176 301q-181 0 -181 -322q0 -301 175 -301q182 0 182 322zM269 863q0 -24 -15.5 -39t-37.5 -15q-25 0 -40.5 15 t-15.5 39t16 40t40 16q23 0 38 -16t15 -40zM471 863q0 -24 -16.5 -39t-41.5 -15q-21 0 -37 15.5t-16 38.5q0 24 15.5 40t37.5 16q25 0 41.5 -16t16.5 -40z" />
<glyph unicode="&#xd7;" horiz-adv-x="487" d="M425 452l-130 -158l131 -160l-52 -53l-130 160l-129 -159l-52 52l129 159l-131 161l51 54l132 -163l129 161z" />
<glyph unicode="&#xd8;" horiz-adv-x="627" d="M580 384q0 -397 -276 -397q-117 0 -181 74l-61 -79l-53 55l72 92q-37 86 -37 226q0 79 13.5 146t44 125.5t86 92t131.5 33.5q122 0 187 -86l73 92l51 -55l-85 -106q35 -87 35 -213zM133 359q0 -88 14 -151l305 386q-44 87 -138 87q-181 0 -181 -322zM490 380 q0 73 -12 136l-301 -385q44 -73 131 -73q182 0 182 322z" />
<glyph unicode="&#xd9;" horiz-adv-x="628" d="M541 739v-510q0 -108 -56 -175t-176 -67q-119 0 -170.5 66t-51.5 174v512h86v-494q0 -90 31.5 -136t110.5 -46t110 48.5t31 135.5v492h85zM207 947l76 41l94 -155l-56 -27z" />
<glyph unicode="&#xda;" horiz-adv-x="628" d="M541 739v-510q0 -108 -56 -175t-176 -67q-119 0 -170.5 66t-51.5 174v512h86v-494q0 -90 31.5 -136t110.5 -46t110 48.5t31 135.5v492h85zM261 828l92 161l68 -39l-110 -147z" />
<glyph unicode="&#xdb;" horiz-adv-x="628" d="M541 739v-510q0 -108 -56 -175t-176 -67q-119 0 -170.5 66t-51.5 174v512h86v-494q0 -90 31.5 -136t110.5 -46t110 48.5t31 135.5v492h85zM318 962l140 -121l-40 -40l-99 80l-97 -80l-41 35z" />
<glyph unicode="&#xdc;" horiz-adv-x="628" d="M541 739v-510q0 -108 -56 -175t-176 -67q-119 0 -170.5 66t-51.5 174v512h86v-494q0 -90 31.5 -136t110.5 -46t110 48.5t31 135.5v492h85zM270 863q0 -24 -15.5 -39t-37.5 -15q-25 0 -40.5 15t-15.5 39t16 40t40 16q23 0 38 -16t15 -40zM472 863q0 -24 -16.5 -39 t-41.5 -15q-21 0 -37 15.5t-16 38.5q0 24 15.5 40t37.5 16q25 0 41.5 -16t16.5 -40z" />
<glyph unicode="&#xdd;" horiz-adv-x="476" d="M491 739l-210 -497v-242h-85v240l-212 499h97l159 -409l162 409h89zM185 828l92 161l68 -39l-110 -147z" />
<glyph unicode="&#xde;" horiz-adv-x="517" d="M103 739h85v-137h64q56 0 99.5 -16.5t68.5 -41t40.5 -57t21 -60.5t5.5 -56q0 -33 -6 -64t-21.5 -62t-40 -53.5t-64.5 -36.5t-91 -14q-45 0 -76 8v-149h-85v739zM395 371q0 19 -2 36t-11.5 41t-25 41t-45.5 29.5t-70 12.5h-53v-311q40 -9 73 -9q134 0 134 160z" />
<glyph unicode="&#xdf;" horiz-adv-x="493" d="M325 55q31 0 47.5 19.5t16.5 54.5q0 34 -19.5 67t-43.5 57t-43.5 62t-19.5 81q0 39 15 77.5t32.5 64t32.5 59t15 63.5q0 39 -20.5 66t-62.5 27q-54 0 -82 -46t-28 -119v-588h-85v585q0 107 50.5 171.5t144.5 64.5q80 0 125 -43t45 -109q0 -41 -15 -80t-32.5 -64.5 t-32.5 -58.5t-15 -63q0 -28 13 -53t31 -46l36 -44q19 -23 32 -56.5t13 -73.5q0 -42 -14.5 -72.5t-38 -45.5t-47 -21t-47.5 -6q-56 0 -120 37l23 72q60 -39 94 -39z" />
<glyph unicode="&#xe0;" horiz-adv-x="456" d="M385 0h-71l-9 52q-2 -1 -17.5 -12.5t-21 -15t-21 -12.5t-25.5 -12.5t-25.5 -7t-30.5 -3.5q-58 0 -89 41t-31 103q0 57 34.5 92.5t86.5 49t126 15.5v102q0 52 -18 73t-55 21q-53 0 -130 -38l-19 65q102 39 161 39q78 0 111.5 -40.5t33.5 -117.5v-242q0 -47 10 -152z M292 102v135q-27 -1 -47 -2.5t-44.5 -7.5t-40 -15.5t-26.5 -27.5t-11 -42q0 -41 19 -65.5t52 -24.5q32 0 98 50zM115 752l76 41l94 -156l-56 -27z" />
<glyph unicode="&#xe1;" horiz-adv-x="456" d="M385 0h-71l-9 52q-2 -1 -17.5 -12.5t-21 -15t-21 -12.5t-25.5 -12.5t-25.5 -7t-30.5 -3.5q-58 0 -89 41t-31 103q0 57 34.5 92.5t86.5 49t126 15.5v102q0 52 -18 73t-55 21q-53 0 -130 -38l-19 65q102 39 161 39q78 0 111.5 -40.5t33.5 -117.5v-242q0 -47 10 -152z M292 102v135q-27 -1 -47 -2.5t-44.5 -7.5t-40 -15.5t-26.5 -27.5t-11 -42q0 -41 19 -65.5t52 -24.5q32 0 98 50zM187 632l93 162l67 -38l-110 -149z" />
<glyph unicode="&#xe2;" horiz-adv-x="456" d="M385 0h-71l-9 52q-2 -1 -17.5 -12.5t-21 -15t-21 -12.5t-25.5 -12.5t-25.5 -7t-30.5 -3.5q-58 0 -89 41t-31 103q0 57 34.5 92.5t86.5 49t126 15.5v102q0 52 -18 73t-55 21q-53 0 -130 -38l-19 65q102 39 161 39q78 0 111.5 -40.5t33.5 -117.5v-242q0 -47 10 -152z M292 102v135q-27 -1 -47 -2.5t-44.5 -7.5t-40 -15.5t-26.5 -27.5t-11 -42q0 -41 19 -65.5t52 -24.5q32 0 98 50zM234 767l139 -121l-40 -40l-99 80l-97 -80l-41 34z" />
<glyph unicode="&#xe3;" horiz-adv-x="456" d="M385 0h-71l-9 52q-2 -1 -17.5 -12.5t-21 -15t-21 -12.5t-25.5 -12.5t-25.5 -7t-30.5 -3.5q-58 0 -89 41t-31 103q0 57 34.5 92.5t86.5 49t126 15.5v102q0 52 -18 73t-55 21q-53 0 -130 -38l-19 65q102 39 161 39q78 0 111.5 -40.5t33.5 -117.5v-242q0 -47 10 -152z M292 102v135q-27 -1 -47 -2.5t-44.5 -7.5t-40 -15.5t-26.5 -27.5t-11 -42q0 -41 19 -65.5t52 -24.5q32 0 98 50zM340 718l34 -38q-44 -54 -95 -54q-29 0 -57 15.5t-44 15.5q-5 0 -9.5 -0.5t-9.5 -3t-8 -3.5t-9.5 -5.5t-8 -6t-9.5 -7.5t-10 -7l-31 41q49 52 96 52 q27 0 55.5 -15t44.5 -15q26 0 61 31z" />
<glyph unicode="&#xe4;" horiz-adv-x="456" d="M385 0h-71l-9 52q-2 -1 -17.5 -12.5t-21 -15t-21 -12.5t-25.5 -12.5t-25.5 -7t-30.5 -3.5q-58 0 -89 41t-31 103q0 57 34.5 92.5t86.5 49t126 15.5v102q0 52 -18 73t-55 21q-53 0 -130 -38l-19 65q102 39 161 39q78 0 111.5 -40.5t33.5 -117.5v-242q0 -47 10 -152z M292 102v135q-27 -1 -47 -2.5t-44.5 -7.5t-40 -15.5t-26.5 -27.5t-11 -42q0 -41 19 -65.5t52 -24.5q32 0 98 50zM185 700q0 -23 -14.5 -38t-35.5 -15q-24 0 -39 14.5t-15 38.5q0 25 15 40t39 15q21 0 35.5 -15.5t14.5 -39.5zM380 700q0 -24 -15 -38.5t-39 -14.5 q-21 0 -35.5 14.5t-14.5 38.5t14 39.5t36 15.5q23 0 38.5 -15.5t15.5 -39.5z" />
<glyph unicode="&#xe5;" horiz-adv-x="456" d="M385 0h-71l-9 52q-2 -1 -17.5 -12.5t-21 -15t-21 -12.5t-25.5 -12.5t-25.5 -7t-30.5 -3.5q-58 0 -89 41t-31 103q0 57 34.5 92.5t86.5 49t126 15.5v102q0 52 -18 73t-55 21q-53 0 -130 -38l-19 65q102 39 161 39q78 0 111.5 -40.5t33.5 -117.5v-242q0 -47 10 -152z M292 102v135q-27 -1 -47 -2.5t-44.5 -7.5t-40 -15.5t-26.5 -27.5t-11 -42q0 -41 19 -65.5t52 -24.5q32 0 98 50zM335 707q0 -48 -29 -81.5t-74 -33.5q-44 0 -72.5 33.5t-28.5 81.5t29 81.5t72 33.5q45 0 74 -33.5t29 -81.5zM280 707q0 27 -13 45.5t-35 18.5t-34.5 -18.5 t-12.5 -45.5t12.5 -45t34.5 -18t35 19t13 44z" />
<glyph unicode="&#xe6;" horiz-adv-x="669" d="M466 -14q-85 0 -132 73q-89 -70 -162 -70q-60 0 -95.5 42t-35.5 109q0 88 65 132t178 47v62q0 105 -67 105q-51 0 -130 -38l-19 65q102 39 159 39q83 0 108 -92q58 94 129 94q81 0 120.5 -66t39.5 -172q0 -24 -3 -47h-264q6 -216 121 -216q53 0 115 47l21 -67 q-68 -47 -148 -47zM197 52q48 0 114 53q-25 64 -28 161q-77 -2 -120.5 -30.5t-43.5 -85.5q0 -42 22 -70t56 -28zM454 491q-44 0 -70 -48t-31 -118h192v10q0 156 -91 156z" />
<glyph unicode="&#xe7;" horiz-adv-x="404" d="M361 86l18 -66q-40 -22 -110 -29l-8 -60q93 -19 93 -96q0 -49 -34.5 -71t-85.5 -22q-34 0 -69 10l12 46q29 -9 52 -9q64 0 64 50q0 26 -21 38.5t-65 15.5l11 99q-166 20 -166 275q0 141 53 211.5t152 70.5q71 0 120 -24l-18 -71q-46 27 -98 27q-121 0 -121 -204 q0 -105 32 -161.5t90 -56.5q46 0 99 27z" />
<glyph unicode="&#xe8;" d="M416 269h-285q1 -112 30.5 -163t98.5 -51q54 0 129 39l20 -65q-82 -42 -156 -42q-106 0 -152.5 72.5t-46.5 205.5q0 287 195 287q171 0 171 -227q0 -33 -4 -56zM245 491q-101 0 -113 -166h208v7q0 78 -20 118q-21 41 -75 41zM131 752l76 41l94 -156l-56 -27z" />
<glyph unicode="&#xe9;" d="M416 269h-285q1 -112 30.5 -163t98.5 -51q54 0 129 39l20 -65q-82 -42 -156 -42q-106 0 -152.5 72.5t-46.5 205.5q0 287 195 287q171 0 171 -227q0 -33 -4 -56zM245 491q-101 0 -113 -166h208v7q0 78 -20 118q-21 41 -75 41zM204 632l93 162l67 -38l-110 -149z" />
<glyph unicode="&#xea;" d="M416 269h-285q1 -112 30.5 -163t98.5 -51q54 0 129 39l20 -65q-82 -42 -156 -42q-106 0 -152.5 72.5t-46.5 205.5q0 287 195 287q171 0 171 -227q0 -33 -4 -56zM245 491q-101 0 -113 -166h208v7q0 78 -20 118q-21 41 -75 41zM250 767l139 -121l-40 -40l-99 80l-97 -80 l-41 34z" />
<glyph unicode="&#xeb;" d="M416 269h-285q1 -112 30.5 -163t98.5 -51q54 0 129 39l20 -65q-82 -42 -156 -42q-106 0 -152.5 72.5t-46.5 205.5q0 287 195 287q171 0 171 -227q0 -33 -4 -56zM245 491q-101 0 -113 -166h208v7q0 78 -20 118q-21 41 -75 41zM201 700q0 -23 -14.5 -38t-35.5 -15 q-24 0 -39 14.5t-15 38.5q0 25 15 40t39 15q21 0 35.5 -15.5t14.5 -39.5zM396 700q0 -24 -15 -38.5t-39 -14.5q-21 0 -35.5 14.5t-14.5 38.5t14 39.5t36 15.5q23 0 38.5 -15.5t15.5 -39.5z" />
<glyph unicode="&#xec;" horiz-adv-x="242" d="M164 0h-86v539h86v-539zM3 752l76 41l94 -156l-56 -27z" />
<glyph unicode="&#xed;" horiz-adv-x="242" d="M164 0h-86v539h86v-539zM76 632l93 162l67 -38l-110 -149z" />
<glyph unicode="&#xee;" horiz-adv-x="242" d="M164 0h-86v539h86v-539zM122 767l139 -121l-40 -40l-99 80l-97 -80l-41 34z" />
<glyph unicode="&#xef;" horiz-adv-x="242" d="M164 0h-86v539h86v-539zM73 700q0 -23 -14.5 -38t-35.5 -15q-24 0 -39 14.5t-15 38.5q0 25 15 40t39 15q21 0 35.5 -15.5t14.5 -39.5zM268 700q0 -24 -15 -38.5t-39 -14.5q-21 0 -35.5 14.5t-14.5 38.5t14 39.5t36 15.5q23 0 38.5 -15.5t15.5 -39.5z" />
<glyph unicode="&#xf0;" horiz-adv-x="516" d="M215 517l-35 47l93 82q-52 64 -129 100l33 66q94 -40 156 -113l87 77l33 -45l-85 -77q91 -138 91 -346q0 -321 -203 -321q-92 0 -146.5 62t-54.5 166q0 62 18 111t49 77.5t70 42.5q32 11 66 11q9 0 18 -1q43 -3 85 -22q-17 96 -56 164zM146 226q0 -73 29.5 -120t83.5 -47 q112 0 112 240q0 36 -3 72q-50 21 -93 21q-7 0 -15 -1q-49 -4 -81.5 -47.5t-32.5 -117.5z" />
<glyph unicode="&#xf1;" horiz-adv-x="532" d="M451 0h-85v380q0 54 -15.5 75.5t-49.5 21.5q-58 0 -135 -71v-406h-85v539h76l6 -62q48 38 87 56.5t84 18.5q57 0 87 -35t30 -121v-396zM382 718l34 -38q-44 -54 -95 -54q-29 0 -57 15.5t-44 15.5q-5 0 -9.5 -0.5t-9.5 -3t-8 -3.5t-9.5 -5.5t-8 -6t-9.5 -7.5t-10 -7 l-31 41q49 52 96 52q27 0 55.5 -15t44.5 -15q26 0 61 31z" />
<glyph unicode="&#xf2;" horiz-adv-x="513" d="M52 264q0 131 51 209.5t158 78.5q197 0 197 -275q0 -134 -50.5 -212t-155.5 -78q-102 0 -151 75t-49 202zM139 268q0 -212 115 -212q117 0 117 219q0 209 -114 209q-118 0 -118 -216zM142 752l76 41l94 -156l-56 -27z" />
<glyph unicode="&#xf3;" horiz-adv-x="513" d="M52 264q0 131 51 209.5t158 78.5q197 0 197 -275q0 -134 -50.5 -212t-155.5 -78q-102 0 -151 75t-49 202zM139 268q0 -212 115 -212q117 0 117 219q0 209 -114 209q-118 0 -118 -216zM215 632l93 162l67 -38l-110 -149z" />
<glyph unicode="&#xf4;" horiz-adv-x="513" d="M52 264q0 131 51 209.5t158 78.5q197 0 197 -275q0 -134 -50.5 -212t-155.5 -78q-102 0 -151 75t-49 202zM139 268q0 -212 115 -212q117 0 117 219q0 209 -114 209q-118 0 -118 -216zM261 767l139 -121l-40 -40l-99 80l-97 -80l-41 34z" />
<glyph unicode="&#xf5;" horiz-adv-x="513" d="M52 264q0 131 51 209.5t158 78.5q197 0 197 -275q0 -134 -50.5 -212t-155.5 -78q-102 0 -151 75t-49 202zM139 268q0 -212 115 -212q117 0 117 219q0 209 -114 209q-118 0 -118 -216zM367 718l34 -38q-43 -54 -95 -54q-29 0 -57 15.5t-44 15.5q-5 0 -9.5 -0.5t-9.5 -3 t-8 -3.5t-9.5 -5.5t-8 -6t-9.5 -7.5t-10 -7l-31 41q49 52 96 52q27 0 55.5 -15t44.5 -15q26 0 61 31z" />
<glyph unicode="&#xf6;" horiz-adv-x="513" d="M52 264q0 131 51 209.5t158 78.5q197 0 197 -275q0 -134 -50.5 -212t-155.5 -78q-102 0 -151 75t-49 202zM139 268q0 -212 115 -212q117 0 117 219q0 209 -114 209q-118 0 -118 -216zM212 700q0 -23 -14.5 -38t-35.5 -15q-24 0 -39 14.5t-15 38.5q0 25 15 40t39 15 q21 0 35.5 -15.5t14.5 -39.5zM407 700q0 -24 -15 -38.5t-39 -14.5q-21 0 -35.5 14.5t-14.5 38.5t14 39.5t36 15.5q23 0 38.5 -15.5t15.5 -39.5z" />
<glyph unicode="&#xf7;" horiz-adv-x="487" d="M442 336l-367 -164l-25 68l368 164zM384 45q0 -25 -16.5 -42t-39.5 -17q-25 0 -41.5 17t-16.5 42t17 42t41 17q23 0 39.5 -17t16.5 -42zM273 515q0 -25 -16.5 -42t-39.5 -17q-25 0 -41.5 17t-16.5 42t17 42t41 17q23 0 39.5 -17t16.5 -42z" />
<glyph unicode="&#xf8;" horiz-adv-x="513" d="M52 264q0 131 51 209.5t158 78.5q90 0 139 -60l64 64l56 -59l-80 -81q18 -57 18 -139q0 -134 -50.5 -212t-155.5 -78q-99 0 -150 73l-63 -62l-54 59l81 81q-14 52 -14 126zM371 275q0 39 -5 79l-209 -222q28 -76 97 -76q117 0 117 219zM139 268q0 -35 3 -65l205 220 q-28 61 -90 61q-118 0 -118 -216z" />
<glyph unicode="&#xf9;" horiz-adv-x="529" d="M79 539h85v-380q0 -54 15.5 -75t49.5 -21q60 0 135 70v406h85v-539h-76l-6 61q-49 -38 -87.5 -56t-82.5 -18q-57 0 -87.5 35t-30.5 122v395zM145 752l76 41l94 -156l-56 -27z" />
<glyph unicode="&#xfa;" horiz-adv-x="529" d="M79 539h85v-380q0 -54 15.5 -75t49.5 -21q60 0 135 70v406h85v-539h-76l-6 61q-49 -38 -87.5 -56t-82.5 -18q-57 0 -87.5 35t-30.5 122v395zM218 632l93 162l67 -38l-110 -149z" />
<glyph unicode="&#xfb;" horiz-adv-x="529" d="M79 539h85v-380q0 -54 15.5 -75t49.5 -21q60 0 135 70v406h85v-539h-76l-6 61q-49 -38 -87.5 -56t-82.5 -18q-57 0 -87.5 35t-30.5 122v395zM264 767l139 -121l-40 -40l-99 80l-97 -80l-41 34z" />
<glyph unicode="&#xfc;" horiz-adv-x="529" d="M79 539h85v-380q0 -54 15.5 -75t49.5 -21q60 0 135 70v406h85v-539h-76l-6 61q-49 -38 -87.5 -56t-82.5 -18q-57 0 -87.5 35t-30.5 122v395zM215 700q0 -23 -14.5 -38t-35.5 -15q-24 0 -39 14.5t-15 38.5q0 25 15 40t39 15q21 0 35.5 -15.5t14.5 -39.5zM410 700 q0 -24 -15 -38.5t-39 -14.5q-21 0 -35.5 14.5t-14.5 38.5t14 39.5t36 15.5q23 0 38.5 -15.5t15.5 -39.5z" />
<glyph unicode="&#xfd;" horiz-adv-x="435" d="M432 539l-172 -585q-29 -99 -75.5 -147.5t-128.5 -81.5l-31 69q62 28 97.5 66.5t56.5 106.5l16 52l-32 2l-156 518h93l123 -459l121 459h88zM180 632l93 162l67 -38l-110 -149z" />
<glyph unicode="&#xfe;" horiz-adv-x="498" d="M452 275q0 -68 -20 -131.5t-69 -110.5t-117 -47q-35 0 -83 21v-279h-86v1084h86v-292q50 34 92 34q96 0 146.5 -80.5t50.5 -198.5zM361 269q0 92 -28.5 153t-89.5 61q-42 0 -80 -39v-359q39 -28 82 -28q32 0 56 21.5t36.5 56t18 68t5.5 66.5z" />
<glyph unicode="&#xff;" horiz-adv-x="435" d="M432 539l-172 -585q-29 -99 -75.5 -147.5t-128.5 -81.5l-31 69q62 28 97.5 66.5t56.5 106.5l16 52l-32 2l-156 518h93l123 -459l121 459h88zM177 700q0 -23 -14.5 -38t-35.5 -15q-24 0 -39 14.5t-15 38.5q0 25 15 40t39 15q21 0 35.5 -15.5t14.5 -39.5zM372 700 q0 -24 -15 -38.5t-39 -14.5q-21 0 -35.5 14.5t-14.5 38.5t14 39.5t36 15.5q23 0 38.5 -15.5t15.5 -39.5z" />
<glyph unicode="&#x100;" horiz-adv-x="520" d="M430 0l-63 215h-224l-61 -215h-86l211 739h97l220 -739h-94zM253 661l-92 -377h187zM391 832h-273v60h273v-60z" />
<glyph unicode="&#x101;" horiz-adv-x="456" d="M385 0h-71l-9 52q-2 -1 -17.5 -12.5t-21 -15t-21 -12.5t-25.5 -12.5t-25.5 -7t-30.5 -3.5q-58 0 -89 41t-31 103q0 57 34.5 92.5t86.5 49t126 15.5v102q0 52 -18 73t-55 21q-53 0 -130 -38l-19 65q102 39 161 39q78 0 111.5 -40.5t33.5 -117.5v-242q0 -47 10 -152z M292 102v135q-27 -1 -47 -2.5t-44.5 -7.5t-40 -15.5t-26.5 -27.5t-11 -42q0 -41 19 -65.5t52 -24.5q32 0 98 50zM370 632h-273v60h273v-60z" />
<glyph unicode="&#x102;" horiz-adv-x="520" d="M430 0l-63 215h-224l-61 -215h-86l211 739h97l220 -739h-94zM253 661l-92 -377h187zM341 953l54 -6q-8 -68 -44.5 -106.5t-95.5 -38.5t-96 38.5t-43 106.5l54 6q21 -92 85 -92q66 0 86 92z" />
<glyph unicode="&#x103;" horiz-adv-x="456" d="M385 0h-71l-9 52q-2 -1 -17.5 -12.5t-21 -15t-21 -12.5t-25.5 -12.5t-25.5 -7t-30.5 -3.5q-58 0 -89 41t-31 103q0 57 34.5 92.5t86.5 49t126 15.5v102q0 52 -18 73t-55 21q-53 0 -130 -38l-19 65q102 39 161 39q78 0 111.5 -40.5t33.5 -117.5v-242q0 -47 10 -152z M292 102v135q-27 -1 -47 -2.5t-44.5 -7.5t-40 -15.5t-26.5 -27.5t-11 -42q0 -41 19 -65.5t52 -24.5q32 0 98 50zM314 759l62 -6q-7 -67 -45 -103t-100 -36q-59 0 -95 36t-42 103l61 6q9 -45 27 -67.5t52 -22.5q64 0 80 90z" />
<glyph unicode="&#x104;" horiz-adv-x="520" d="M522 -162l17 -50q-45 -25 -89 -25q-99 0 -99 101q0 81 78 138l-62 213h-224l-61 -215h-86l211 739h97l219 -736l6 -3q-50 -25 -79 -61t-29 -67q0 -52 43 -52q25 0 58 18zM253 661l-92 -377h187z" />
<glyph unicode="&#x105;" horiz-adv-x="456" d="M380 -162l17 -50q-45 -25 -89 -25q-99 0 -99 101q0 43 26 83.5t76 70.5l-6 34q-2 -1 -17.5 -12.5t-21 -15t-21 -12.5t-25.5 -12.5t-25.5 -7t-30.5 -3.5q-58 0 -89 41t-31 103q0 57 34.5 92.5t86.5 49t126 15.5v102q0 52 -18 73t-55 21q-53 0 -130 -38l-19 65 q102 39 161 39q78 0 111.5 -40.5t33.5 -117.5v-242q0 -46 10 -151l2 -1q-50 -25 -79 -61t-29 -67q0 -52 43 -52q25 0 58 18zM292 102v135q-27 -1 -47 -2.5t-44.5 -7.5t-40 -15.5t-26.5 -27.5t-11 -42q0 -41 19 -65.5t52 -24.5q32 0 98 50z" />
<glyph unicode="&#x106;" d="M446 89l10 -73q-67 -28 -143 -28q-271 0 -271 376q0 388 277 388q69 0 136 -24l-15 -72q-13 7 -49 15.5t-71 8.5q-188 0 -188 -306q0 -314 183 -314q66 0 131 29zM246 828l92 161l68 -39l-110 -147z" />
<glyph unicode="&#x107;" horiz-adv-x="404" d="M361 86l18 -66q-56 -30 -133 -30q-95 0 -144.5 70.5t-49.5 206.5q0 141 53 211.5t152 70.5q71 0 120 -24l-18 -71q-46 27 -98 27q-121 0 -121 -204q0 -105 32 -161.5t90 -56.5q46 0 99 27zM213 632l93 162l67 -38l-110 -149z" />
<glyph unicode="&#x108;" d="M446 89l10 -73q-67 -28 -143 -28q-271 0 -271 376q0 388 277 388q69 0 136 -24l-15 -72q-13 7 -49 15.5t-71 8.5q-188 0 -188 -306q0 -314 183 -314q66 0 131 29zM303 962l140 -121l-40 -40l-99 80l-97 -80l-41 35z" />
<glyph unicode="&#x109;" horiz-adv-x="404" d="M361 86l18 -66q-56 -30 -133 -30q-95 0 -144.5 70.5t-49.5 206.5q0 141 53 211.5t152 70.5q71 0 120 -24l-18 -71q-46 27 -98 27q-121 0 -121 -204q0 -105 32 -161.5t90 -56.5q46 0 99 27zM260 767l139 -121l-40 -40l-99 80l-97 -80l-41 34z" />
<glyph unicode="&#x10a;" d="M446 89l10 -73q-67 -28 -143 -28q-271 0 -271 376q0 388 277 388q69 0 136 -24l-15 -72q-13 7 -49 15.5t-71 8.5q-188 0 -188 -306q0 -314 183 -314q66 0 131 29zM357 913q0 -25 -16 -41t-39 -16q-24 0 -39 16t-15 41t15.5 41.5t38.5 16.5t39 -16.5t16 -41.5z" />
<glyph unicode="&#x10b;" horiz-adv-x="404" d="M361 86l18 -66q-56 -30 -133 -30q-95 0 -144.5 70.5t-49.5 206.5q0 141 53 211.5t152 70.5q71 0 120 -24l-18 -71q-46 27 -98 27q-121 0 -121 -204q0 -105 32 -161.5t90 -56.5q46 0 99 27zM314 713q0 -25 -16 -41t-39 -16q-24 0 -39 16t-15 41t15.5 41.5t38.5 16.5 t39 -16.5t16 -41.5z" />
<glyph unicode="&#x10c;" d="M446 89l10 -73q-67 -28 -143 -28q-271 0 -271 376q0 388 277 388q69 0 136 -24l-15 -72q-13 7 -49 15.5t-71 8.5q-188 0 -188 -306q0 -314 183 -314q66 0 131 29zM303 862l96 79l39 -36l-103 -101h-64l-106 99l39 38z" />
<glyph unicode="&#x10d;" horiz-adv-x="404" d="M361 86l18 -66q-56 -30 -133 -30q-95 0 -144.5 70.5t-49.5 206.5q0 141 53 211.5t152 70.5q71 0 120 -24l-18 -71q-46 27 -98 27q-121 0 -121 -204q0 -105 32 -161.5t90 -56.5q46 0 99 27zM257 680l96 80l39 -36l-103 -101h-64l-106 99l38 38z" />
<glyph unicode="&#x10e;" horiz-adv-x="608" d="M563 375q0 -64 -8 -116.5t-28.5 -102t-53.5 -83t-86.5 -53.5t-124.5 -20h-170v739h174q297 0 297 -364zM474 371q0 67 -9.5 117t-32.5 92.5t-67.5 65t-108.5 22.5h-79v-597h90q51 0 88.5 16t60 42t36 66t18 81t4.5 95zM277 862l96 79l39 -36l-103 -101h-64l-106 99l39 38 z" />
<glyph unicode="&#x10f;" horiz-adv-x="514" d="M433 812v-793q-94 -33 -177 -33q-201 0 -201 280q0 127 50.5 207.5t158.5 80.5q40 0 84 -13v271h85zM348 71v391q-35 21 -85 21q-120 0 -120 -214q0 -213 117 -213q47 0 88 15zM537 615l-45 37q41 47 41 94q0 17 -10.5 34.5t-10.5 34.5q0 16 12 27.5t30 11.5 q24 0 38.5 -23t14.5 -60q0 -76 -70 -156z" />
<glyph unicode="&#x110;" horiz-adv-x="608" d="M563 375q0 -64 -8 -116.5t-28.5 -102t-53.5 -83t-86.5 -53.5t-124.5 -20h-170v739h174q297 0 297 -364zM474 371q0 67 -9.5 117t-32.5 92.5t-67.5 65t-108.5 22.5h-79v-597h90q51 0 88.5 16t60 42t36 66t18 81t4.5 95zM412 832h-273v60h273v-60z" />
<glyph unicode="&#x111;" horiz-adv-x="496" d="M433 812v-119h61v-60h-61v-614q-94 -33 -177 -33q-201 0 -201 280q0 127 50.5 207.5t158.5 80.5q40 0 84 -13v92h-155v60h155v119h85zM348 71v391q-35 21 -85 21q-120 0 -120 -214q0 -213 117 -213q47 0 88 15z" />
<glyph unicode="&#x112;" horiz-adv-x="498" d="M468 0h-376v739h358v-71h-273v-248h246v-70h-246v-279h291v-71zM407 832h-273v60h273v-60z" />
<glyph unicode="&#x113;" d="M416 269h-285q1 -112 30.5 -163t98.5 -51q54 0 129 39l20 -65q-82 -42 -156 -42q-106 0 -152.5 72.5t-46.5 205.5q0 287 195 287q171 0 171 -227q0 -33 -4 -56zM245 491q-101 0 -113 -166h208v7q0 78 -20 118q-21 41 -75 41zM386 632h-273v60h273v-60z" />
<glyph unicode="&#x114;" horiz-adv-x="498" d="M468 0h-376v739h358v-71h-273v-248h246v-70h-246v-279h291v-71zM357 953l54 -6q-8 -68 -44.5 -106.5t-95.5 -38.5t-96 38.5t-43 106.5l54 6q21 -92 85 -92q66 0 86 92z" />
<glyph unicode="&#x115;" d="M416 269h-285q1 -112 30.5 -163t98.5 -51q54 0 129 39l20 -65q-82 -42 -156 -42q-106 0 -152.5 72.5t-46.5 205.5q0 287 195 287q171 0 171 -227q0 -33 -4 -56zM245 491q-101 0 -113 -166h208v7q0 78 -20 118q-21 41 -75 41zM331 759l62 -6q-7 -67 -45 -103t-100 -36 q-59 0 -95 36t-42 103l61 6q9 -45 27 -67.5t52 -22.5q64 0 80 90z" />
<glyph unicode="&#x116;" horiz-adv-x="498" d="M468 0h-376v739h358v-71h-273v-248h246v-70h-246v-279h291v-71zM325 913q0 -25 -16 -41t-39 -16q-24 0 -39 16t-15 41t15.5 41.5t38.5 16.5t39 -16.5t16 -41.5z" />
<glyph unicode="&#x117;" d="M416 269h-285q1 -112 30.5 -163t98.5 -51q54 0 129 39l20 -65q-82 -42 -156 -42q-106 0 -152.5 72.5t-46.5 205.5q0 287 195 287q171 0 171 -227q0 -33 -4 -56zM245 491q-101 0 -113 -166h208v7q0 78 -20 118q-21 41 -75 41zM305 713q0 -25 -16 -41t-39 -16q-24 0 -39 16 t-15 41t15.5 41.5t38.5 16.5t39 -16.5t16 -41.5z" />
<glyph unicode="&#x118;" horiz-adv-x="498" d="M460 -162l17 -50q-45 -25 -89 -25q-99 0 -99 101q0 79 75 136h-272v739h358v-71h-273v-248h246v-70h-246v-279h291v-71h-1q-50 -25 -79 -61t-29 -67q0 -52 43 -52q25 0 58 18z" />
<glyph unicode="&#x119;" d="M405 -127l17 -50q-45 -25 -89 -25q-99 0 -99 101q0 47 29 88h-10q-106 0 -152.5 72.5t-46.5 205.5q0 287 195 287q171 0 171 -227q0 -33 -4 -56h-285q1 -112 30.5 -163t98.5 -51q54 0 129 39l17 -57l6 -2l-4 -2l1 -4q-5 -3 -32 -15q-34 -23 -53.5 -52.5t-19.5 -54.5 q0 -52 43 -52q25 0 58 18zM245 491q-101 0 -113 -166h208v7q0 78 -20 118q-21 41 -75 41z" />
<glyph unicode="&#x11a;" horiz-adv-x="498" d="M468 0h-376v739h358v-71h-273v-248h246v-70h-246v-279h291v-71zM271 862l96 79l39 -36l-103 -101h-64l-106 99l39 38z" />
<glyph unicode="&#x11b;" d="M416 269h-285q1 -112 30.5 -163t98.5 -51q54 0 129 39l20 -65q-82 -42 -156 -42q-106 0 -152.5 72.5t-46.5 205.5q0 287 195 287q171 0 171 -227q0 -33 -4 -56zM245 491q-101 0 -113 -166h208v7q0 78 -20 118q-21 41 -75 41zM248 680l96 80l39 -36l-103 -101h-64l-106 99 l38 38z" />
<glyph unicode="&#x11c;" horiz-adv-x="592" d="M532 335v-295q-91 -53 -205 -53q-74 0 -128 27t-86 77.5t-47 116t-15 148.5q0 184 73 290t221 106q82 0 175 -33l-19 -71q-77 32 -158 32q-202 0 -202 -315q0 -306 191 -306q60 0 118 27v249h82zM342 962l140 -121l-40 -40l-99 80l-97 -80l-41 35z" />
<glyph unicode="&#x11d;" horiz-adv-x="454" d="M225 554q42 0 75 -15q35 53 63.5 84t59.5 39l26 -66q-60 -16 -103 -91q44 -51 44 -140q0 -94 -45.5 -139t-120.5 -45q-25 0 -44 4q-12 -21 -12 -46q0 -30 27 -49.5t65 -32t76.5 -28.5t65.5 -51.5t27 -89.5q0 -37 -12.5 -65.5t-32 -46t-47 -29t-55 -15.5t-57.5 -4 q-88 0 -139.5 36.5t-51.5 109.5q0 20 5 39t9.5 32t17.5 31.5t18 24.5t22.5 25.5t19.5 22.5q-27 30 -27 76q0 38 29 81q-66 45 -66 159q0 96 44.5 142.5t118.5 46.5zM349 -120q0 26 -10.5 45.5t-31.5 32.5t-41 21t-49 18.5t-46 19.5q-35 -43 -50 -69.5t-15 -58.5 q0 -50 32.5 -75.5t86.5 -25.5q53 0 88.5 22t35.5 70zM316 365q0 127 -92 127q-89 0 -89 -126q0 -124 91 -124q90 0 90 123zM221 766l139 -121l-40 -40l-99 80l-97 -80l-41 34z" />
<glyph unicode="&#x11e;" horiz-adv-x="592" d="M532 335v-295q-91 -53 -205 -53q-74 0 -128 27t-86 77.5t-47 116t-15 148.5q0 184 73 290t221 106q82 0 175 -33l-19 -71q-77 32 -158 32q-202 0 -202 -315q0 -306 191 -306q60 0 118 27v249h82zM428 953l54 -6q-8 -68 -44.5 -106.5t-95.5 -38.5t-96 38.5t-43 106.5l54 6 q21 -92 85 -92q66 0 86 92z" />
<glyph unicode="&#x11f;" horiz-adv-x="454" d="M225 554q42 0 75 -15q35 53 63.5 84t59.5 39l26 -66q-60 -16 -103 -91q44 -51 44 -140q0 -94 -45.5 -139t-120.5 -45q-25 0 -44 4q-12 -21 -12 -46q0 -30 27 -49.5t65 -32t76.5 -28.5t65.5 -51.5t27 -89.5q0 -37 -12.5 -65.5t-32 -46t-47 -29t-55 -15.5t-57.5 -4 q-88 0 -139.5 36.5t-51.5 109.5q0 20 5 39t9.5 32t17.5 31.5t18 24.5t22.5 25.5t19.5 22.5q-27 30 -27 76q0 38 29 81q-66 45 -66 159q0 96 44.5 142.5t118.5 46.5zM349 -120q0 26 -10.5 45.5t-31.5 32.5t-41 21t-49 18.5t-46 19.5q-35 -43 -50 -69.5t-15 -58.5 q0 -50 32.5 -75.5t86.5 -25.5q53 0 88.5 22t35.5 70zM316 365q0 127 -92 127q-89 0 -89 -126q0 -124 91 -124q90 0 90 123zM302 758l62 -6q-7 -67 -45 -103t-100 -36q-59 0 -95 36t-42 103l61 6q9 -45 27 -67.5t52 -22.5q64 0 80 90z" />
<glyph unicode="&#x120;" horiz-adv-x="592" d="M532 335v-295q-91 -53 -205 -53q-74 0 -128 27t-86 77.5t-47 116t-15 148.5q0 184 73 290t221 106q82 0 175 -33l-19 -71q-77 32 -158 32q-202 0 -202 -315q0 -306 191 -306q60 0 118 27v249h82zM396 913q0 -25 -16 -41t-39 -16q-24 0 -39 16t-15 41t15.5 41.5t38.5 16.5 t39 -16.5t16 -41.5z" />
<glyph unicode="&#x121;" horiz-adv-x="454" d="M225 554q42 0 75 -15q35 53 63.5 84t59.5 39l26 -66q-60 -16 -103 -91q44 -51 44 -140q0 -94 -45.5 -139t-120.5 -45q-25 0 -44 4q-12 -21 -12 -46q0 -30 27 -49.5t65 -32t76.5 -28.5t65.5 -51.5t27 -89.5q0 -37 -12.5 -65.5t-32 -46t-47 -29t-55 -15.5t-57.5 -4 q-88 0 -139.5 36.5t-51.5 109.5q0 20 5 39t9.5 32t17.5 31.5t18 24.5t22.5 25.5t19.5 22.5q-27 30 -27 76q0 38 29 81q-66 45 -66 159q0 96 44.5 142.5t118.5 46.5zM349 -120q0 26 -10.5 45.5t-31.5 32.5t-41 21t-49 18.5t-46 19.5q-35 -43 -50 -69.5t-15 -58.5 q0 -50 32.5 -75.5t86.5 -25.5q53 0 88.5 22t35.5 70zM316 365q0 127 -92 127q-89 0 -89 -126q0 -124 91 -124q90 0 90 123zM276 712q0 -25 -16 -41t-39 -16q-24 0 -39 16t-15 41t15.5 41.5t38.5 16.5t39 -16.5t16 -41.5z" />
<glyph unicode="&#x122;" horiz-adv-x="592" d="M331 -315l-45 37q41 47 41 94q0 17 -10.5 34.5t-10.5 34.5q0 16 12 27.5t30 11.5q24 0 38.5 -23t14.5 -60q0 -76 -70 -156zM532 335v-295q-91 -53 -205 -53q-74 0 -128 27t-86 77.5t-47 116t-15 148.5q0 184 73 290t221 106q82 0 175 -33l-19 -71q-77 32 -158 32 q-202 0 -202 -315q0 -306 191 -306q60 0 118 27v249h82z" />
<glyph unicode="&#x123;" horiz-adv-x="454" d="M225 554q42 0 75 -15q35 53 63.5 84t59.5 39l26 -66q-60 -16 -103 -91q44 -51 44 -140q0 -94 -45.5 -139t-120.5 -45q-25 0 -44 4q-12 -21 -12 -46q0 -30 27 -49.5t65 -32t76.5 -28.5t65.5 -51.5t27 -89.5q0 -37 -12.5 -65.5t-32 -46t-47 -29t-55 -15.5t-57.5 -4 q-88 0 -139.5 36.5t-51.5 109.5q0 20 5 39t9.5 32t17.5 31.5t18 24.5t22.5 25.5t19.5 22.5q-27 30 -27 76q0 38 29 81q-66 45 -66 159q0 96 44.5 142.5t118.5 46.5zM349 -120q0 26 -10.5 45.5t-31.5 32.5t-41 21t-49 18.5t-46 19.5q-35 -43 -50 -69.5t-15 -58.5 q0 -50 32.5 -75.5t86.5 -25.5q53 0 88.5 22t35.5 70zM316 365q0 127 -92 127q-89 0 -89 -126q0 -124 91 -124q90 0 90 123zM240 868l45 -37q-41 -47 -41 -94q0 -17 10.5 -34.5t10.5 -34.5q0 -16 -12 -27.5t-30 -11.5q-24 0 -38.5 23t-14.5 60q0 76 70 156z" />
<glyph unicode="&#x124;" horiz-adv-x="646" d="M554 0h-86v353h-289v-353h-86v739h86v-315h289v315h86v-739zM327 962l140 -121l-40 -40l-99 80l-97 -80l-41 35z" />
<glyph unicode="&#x125;" horiz-adv-x="532" d="M452 0h-85v368q0 109 -68 109q-56 0 -133 -70v-407h-85v813h85l-3 -334q90 73 167 73q122 0 122 -170v-382zM129 1040l139 -121l-40 -40l-99 80l-97 -80l-41 34z" />
<glyph unicode="&#x126;" horiz-adv-x="646" d="M553 0h-86v353h-289v-353h-86v551h-59v60h59v128h86v-128h289v128h86v-128h65v-60h-65v-551zM178 424h289v127h-289v-127z" />
<glyph unicode="&#x127;" horiz-adv-x="514" d="M452 0h-85v368q0 109 -68 109q-56 0 -133 -70v-407h-85v640h-84v60h84v113h85l-1 -113h133v-60h-134l-1 -161q90 73 167 73q122 0 122 -170v-382z" />
<glyph unicode="&#x128;" horiz-adv-x="270" d="M177 0h-84v739h84v-739zM252 897l33 -39q-45 -50 -95 -50q-26 0 -55.5 15t-46.5 15q-24 0 -62 -30l-32 41q52 49 97 49q25 0 54.5 -14.5t47.5 -14.5q24 0 59 28z" />
<glyph unicode="&#x129;" horiz-adv-x="242" d="M164 0h-86v539h86v-539zM228 718l34 -38q-44 -54 -95 -54q-29 0 -57 15.5t-44 15.5q-5 0 -9.5 -0.5t-9.5 -3t-8 -3.5t-9.5 -5.5t-8 -6t-9.5 -7.5t-10 -7l-31 41q49 52 96 52q27 0 55.5 -15t44.5 -15q26 0 61 31z" />
<glyph unicode="&#x12a;" horiz-adv-x="270" d="M177 0h-84v739h84v-739zM272 832h-273v60h273v-60z" />
<glyph unicode="&#x12b;" horiz-adv-x="242" d="M164 0h-86v539h86v-539zM258 632h-273v60h273v-60z" />
<glyph unicode="&#x12c;" horiz-adv-x="270" d="M177 0h-84v739h84v-739zM222 953l54 -6q-8 -68 -44.5 -106.5t-95.5 -38.5t-96 38.5t-43 106.5l54 6q21 -92 85 -92q66 0 86 92z" />
<glyph unicode="&#x12d;" horiz-adv-x="242" d="M164 0h-86v539h86v-539zM202 759l62 -6q-7 -67 -45 -103t-100 -36q-59 0 -95 36t-42 103l61 6q9 -45 27 -67.5t52 -22.5q64 0 80 90z" />
<glyph unicode="&#x12e;" horiz-adv-x="270" d="M170 -162l17 -50q-45 -25 -89 -25q-99 0 -99 101q0 89 94 149v726h84v-739q-50 -25 -79 -61t-29 -67q0 -52 43 -52q25 0 58 18z" />
<glyph unicode="&#x12f;" horiz-adv-x="242" d="M157 -162l17 -50q-45 -25 -89 -25q-99 0 -99 101q0 88 92 148v527h86v-539q-50 -25 -79 -61t-29 -67q0 -52 43 -52q25 0 58 18zM176 713q0 -25 -16 -41t-39 -16q-24 0 -39 16t-15 41t15.5 41.5t38.5 16.5t39 -16.5t16 -41.5z" />
<glyph unicode="&#x130;" horiz-adv-x="270" d="M177 0h-84v739h84v-739zM191 913q0 -25 -16 -41t-39 -16q-24 0 -39 16t-15 41t15.5 41.5t38.5 16.5t39 -16.5t16 -41.5z" />
<glyph unicode="&#x131;" horiz-adv-x="242" d="M164 0h-86v539h86v-539z" />
<glyph unicode="&#x132;" horiz-adv-x="532" d="M440 739v-613q0 -50 -5.5 -89.5t-15 -68.5t-26 -52t-33 -38t-43 -28t-49 -21t-56.5 -18l-13 73q43 15 68 29t47.5 40.5t31.5 69t9 106.5v610h85zM177 0h-84v739h84v-739z" />
<glyph unicode="&#x133;" horiz-adv-x="484" d="M164 0h-86v539h86v-539zM176 713q0 -25 -16 -41t-39 -16q-24 0 -39 16t-15 41t15.5 41.5t38.5 16.5t39 -16.5t16 -41.5zM321 539h85v-524q0 -117 -39 -169.5t-152 -77.5l-16 69q46 12 70.5 27.5t38 50.5t13.5 95v529zM419 713q0 -25 -16 -41t-39 -16q-24 0 -39 16t-15 41 t15.5 41.5t38.5 16.5t39 -16.5t16 -41.5z" />
<glyph unicode="&#x134;" horiz-adv-x="321" d="M237 739v-452q0 -69 -11 -119.5t-28 -81.5t-48.5 -54t-60.5 -34.5t-77 -25.5l-16 73q34 11 55.5 21.5t43 28.5t32.5 43t18 62.5t7 89.5v449h85zM196 962l140 -121l-40 -40l-99 80l-97 -80l-41 35z" />
<glyph unicode="&#x135;" horiz-adv-x="242" d="M79 539h85v-524q0 -117 -39 -169.5t-152 -77.5l-16 69q46 12 70.5 27.5t38 50.5t13.5 95v529zM123 767l139 -121l-40 -40l-99 80l-97 -80l-41 34z" />
<glyph unicode="&#x136;" horiz-adv-x="540" d="M529 739l-218 -312l243 -427h-110l-186 359l-80 -116v-243h-86v739h86v-377l240 377h111zM263 -315l-45 37q41 47 41 94q0 17 -10.5 34.5t-10.5 34.5q0 16 12 27.5t30 11.5q24 0 38.5 -23t14.5 -60q0 -76 -70 -156z" />
<glyph unicode="&#x137;" horiz-adv-x="460" d="M444 539l-173 -230l188 -309h-104l-135 241l-57 -77v-164h-82v812h85v-403l-3 -137l178 267h103zM210 -315l-45 37q41 47 41 94q0 17 -10.5 34.5t-10.5 34.5q0 16 12 27.5t30 11.5q24 0 38.5 -23t14.5 -60q0 -76 -70 -156z" />
<glyph unicode="&#x138;" horiz-adv-x="410" d="M76 539h79v-246l33 58q23 42 32 56l29 45q20 30 33 41.5t34 28t43 22.5t49 8l6 -72q-56 -5 -90.5 -40.5t-81.5 -117.5l181 -322h-92l-131 249q-14 -25 -45 -75v-174h-79v539z" />
<glyph unicode="&#x139;" horiz-adv-x="458" d="M453 0h-361v739h85v-665h276v-74zM77 828l92 161l68 -39l-110 -147z" />
<glyph unicode="&#x13a;" horiz-adv-x="252" d="M168 0h-86v812h86v-812zM70 901l92 161l68 -39l-110 -147z" />
<glyph unicode="&#x13b;" horiz-adv-x="458" d="M257 -315l-45 37q41 47 41 94q0 17 -10.5 34.5t-10.5 34.5q0 16 12 27.5t30 11.5q24 0 38.5 -23t14.5 -60q0 -76 -70 -156zM453 0h-361v739h85v-665h276v-74z" />
<glyph unicode="&#x13c;" horiz-adv-x="252" d="M115 -315l-45 37q41 47 41 94q0 17 -10.5 34.5t-10.5 34.5q0 16 12 27.5t30 11.5q24 0 38.5 -23t14.5 -60q0 -76 -70 -156zM168 0h-86v812h86v-812z" />
<glyph unicode="&#x13d;" horiz-adv-x="458" d="M453 0h-361v739h85v-665h276v-74zM307 512l-45 37q42 49 42 94q0 17 -10.5 34.5t-10.5 34.5q0 16 11.5 27.5t29.5 11.5q24 0 38.5 -23t14.5 -60q0 -74 -70 -156z" />
<glyph unicode="&#x13e;" horiz-adv-x="252" d="M115 -315l-45 37q41 47 41 94q0 17 -10.5 34.5t-10.5 34.5q0 16 12 27.5t30 11.5q24 0 38.5 -23t14.5 -60q0 -76 -70 -156zM168 0h-86v812h86v-812z" />
<glyph unicode="&#x13f;" horiz-adv-x="458" d="M453 0h-361v739h85v-665h276v-74zM426 353q0 -25 -16.5 -42t-39.5 -17q-25 0 -41.5 17t-16.5 42t17 42t41 17q23 0 39.5 -17t16.5 -42z" />
<glyph unicode="&#x140;" horiz-adv-x="252" d="M168 0h-86v812h86v-812zM348 347q0 -25 -16.5 -42t-39.5 -17q-25 0 -41.5 17t-16.5 42t17 42t41 17q23 0 39.5 -17t16.5 -42z" />
<glyph unicode="&#x141;" horiz-adv-x="458" d="M453 0h-361v280l-56 -51l-19 62l75 66v382h85v-327l1 1l125 115l16 -65l-141 -128l-1 -1v-260h276v-74z" />
<glyph unicode="&#x142;" horiz-adv-x="251" d="M174 0h-86v325l-64 -53l-25 61l89 75v404h86v-339l59 49l24 -61l-83 -70v-391z" />
<glyph unicode="&#x143;" horiz-adv-x="666" d="M574 0h-63l-337 566v-566h-82v739h66l335 -558v558h81v-739zM282 828l92 161l68 -39l-110 -147z" />
<glyph unicode="&#x144;" horiz-adv-x="532" d="M451 0h-85v380q0 54 -15.5 75.5t-49.5 21.5q-58 0 -135 -71v-406h-85v539h76l6 -62q48 38 87 56.5t84 18.5q57 0 87 -35t30 -121v-396zM229 632l93 162l67 -38l-110 -149z" />
<glyph unicode="&#x145;" horiz-adv-x="666" d="M327 -315l-45 37q41 47 41 94q0 17 -10.5 34.5t-10.5 34.5q0 16 12 27.5t30 11.5q24 0 38.5 -23t14.5 -60q0 -76 -70 -156zM574 0h-63l-337 566v-566h-82v739h66l335 -558v558h81v-739z" />
<glyph unicode="&#x146;" horiz-adv-x="532" d="M451 0h-85v380q0 54 -15.5 75.5t-49.5 21.5q-58 0 -135 -71v-406h-85v539h76l6 -62q48 38 87 56.5t84 18.5q57 0 87 -35t30 -121v-396zM265 -315l-45 37q41 47 41 94q0 17 -10.5 34.5t-10.5 34.5q0 16 12 27.5t30 11.5q24 0 38.5 -23t14.5 -60q0 -76 -70 -156z" />
<glyph unicode="&#x147;" horiz-adv-x="666" d="M574 0h-63l-337 566v-566h-82v739h66l335 -558v558h81v-739zM339 862l96 79l39 -36l-103 -101h-64l-106 99l39 38z" />
<glyph unicode="&#x148;" horiz-adv-x="532" d="M451 0h-85v380q0 54 -15.5 75.5t-49.5 21.5q-58 0 -135 -71v-406h-85v539h76l6 -62q48 38 87 56.5t84 18.5q57 0 87 -35t30 -121v-396zM273 680l96 80l39 -36l-103 -101h-64l-106 99l38 38z" />
<glyph unicode="&#x149;" horiz-adv-x="532" d="M451 0h-85v380q0 54 -15.5 75.5t-49.5 21.5q-58 0 -135 -71v-406h-85v539h76l6 -62q48 38 87 56.5t84 18.5q57 0 87 -35t30 -121v-396zM265 -315l-45 37q41 47 41 94q0 17 -10.5 34.5t-10.5 34.5q0 16 12 27.5t30 11.5q24 0 38.5 -23t14.5 -60q0 -76 -70 -156z" />
<glyph unicode="&#x14a;" horiz-adv-x="672" d="M355 -130q66 13 103 44.5t38 91.5v18l-322 542v-566h-82v739h66l335 -558v558h81v-733l7 -6q0 -48 -16 -84.5t-46.5 -59t-65.5 -35.5t-81 -20z" />
<glyph unicode="&#x14b;" horiz-adv-x="514" d="M444 15q0 -115 -39.5 -169.5t-151.5 -79.5l-17 71q69 18 96 51.5t27 121.5v358q0 57 -16 83t-52 26q-56 0 -132 -71v-406h-85v539h76l3 -64q98 77 170 77q121 0 121 -170v-367z" />
<glyph unicode="&#x14c;" horiz-adv-x="624" d="M580 384q0 -397 -276 -397q-260 0 -260 368q0 79 13.5 146t44 125.5t86 92t131.5 33.5q73 0 125.5 -30t81 -83.5t41.5 -116.5t13 -138zM490 380q0 301 -176 301q-181 0 -181 -322q0 -301 175 -301q182 0 182 322zM453 832h-273v60h273v-60z" />
<glyph unicode="&#x14d;" horiz-adv-x="513" d="M52 264q0 131 51 209.5t158 78.5q197 0 197 -275q0 -134 -50.5 -212t-155.5 -78q-102 0 -151 75t-49 202zM139 268q0 -212 115 -212q117 0 117 219q0 209 -114 209q-118 0 -118 -216zM397 632h-273v60h273v-60z" />
<glyph unicode="&#x14e;" horiz-adv-x="624" d="M580 384q0 -397 -276 -397q-260 0 -260 368q0 79 13.5 146t44 125.5t86 92t131.5 33.5q73 0 125.5 -30t81 -83.5t41.5 -116.5t13 -138zM490 380q0 301 -176 301q-181 0 -181 -322q0 -301 175 -301q182 0 182 322zM403 953l54 -6q-8 -68 -44.5 -106.5t-95.5 -38.5 t-96 38.5t-43 106.5l54 6q21 -92 85 -92q66 0 86 92z" />
<glyph unicode="&#x14f;" horiz-adv-x="513" d="M52 264q0 131 51 209.5t158 78.5q197 0 197 -275q0 -134 -50.5 -212t-155.5 -78q-102 0 -151 75t-49 202zM139 268q0 -212 115 -212q117 0 117 219q0 209 -114 209q-118 0 -118 -216zM341 759l62 -6q-7 -67 -45 -103t-100 -36q-59 0 -95 36t-42 103l61 6q9 -45 27 -67.5 t52 -22.5q64 0 80 90z" />
<glyph unicode="&#x150;" horiz-adv-x="624" d="M580 384q0 -397 -276 -397q-260 0 -260 368q0 79 13.5 146t44 125.5t86 92t131.5 33.5q73 0 125.5 -30t81 -83.5t41.5 -116.5t13 -138zM490 380q0 301 -176 301q-181 0 -181 -322q0 -301 175 -301q182 0 182 322zM545 960l-116 -150l-57 8l74 142h99zM362 960l-114 -150 l-57 8l73 142h98z" />
<glyph unicode="&#x151;" horiz-adv-x="513" d="M52 264q0 131 51 209.5t158 78.5q197 0 197 -275q0 -134 -50.5 -212t-155.5 -78q-102 0 -151 75t-49 202zM139 268q0 -212 115 -212q117 0 117 219q0 209 -114 209q-118 0 -118 -216zM489 760l-116 -150l-57 8l74 142h99zM306 760l-114 -150l-57 8l73 142h98z" />
<glyph unicode="&#x152;" horiz-adv-x="830" d="M801 0h-320q-19 0 -70 -5t-76 -5q-59 0 -107 19.5t-78.5 52.5t-52 72t-33 84t-16 81t-4.5 70q0 46 6.5 92.5t26 100t50.5 93.5t85 67t123 27q20 0 65.5 -5t72.5 -5h309v-71h-276v-240h239v-70h-239v-287h295v-71zM422 71v596q-36 10 -87 10q-48 0 -85.5 -22.5t-58.5 -56 t-34.5 -77.5t-18 -80.5t-4.5 -71.5t3.5 -69.5t16 -80t33 -78.5t59 -56.5t89.5 -23.5q27 0 87 10z" />
<glyph unicode="&#x153;" horiz-adv-x="710" d="M671 314q0 -18 -5 -48h-257q11 -213 113 -213q53 0 117 47l23 -66q-70 -48 -149 -48q-100 0 -140 123q-45 -123 -142 -123q-56 0 -96.5 29t-59.5 76t-27 91t-8 90q0 32 4.5 65t17.5 73.5t33 71t56.5 51.5t82.5 21q98 0 139 -119q45 119 134 119q83 0 123 -67.5t41 -172.5 zM129 276q0 -34 3.5 -66t13.5 -69.5t32.5 -60.5t54.5 -23q96 0 96 214q0 212 -97 212q-32 0 -54 -21.5t-32 -57t-13.5 -65.5t-3.5 -63zM503 491q-43 0 -65.5 -47t-27.5 -122h181v7q0 162 -88 162z" />
<glyph unicode="&#x154;" horiz-adv-x="530" d="M92 739h147q123 0 181.5 -48.5t58.5 -153.5q0 -152 -121 -203l143 -334h-102l-119 312q-33 -5 -77 -5h-26v-307h-85v739zM177 667v-291q12 -1 24 -1q31 0 57 5q35 5 66.5 21t48.5 49.5t17 82.5q0 73 -37 105q-35 30 -106 30h-9zM201 828l92 161l68 -39l-110 -147z" />
<glyph unicode="&#x155;" horiz-adv-x="380" d="M349 549l-5 -78q-7 1 -14 1q-45 0 -82 -28q-42 -32 -83 -120v-324h-84v539h84v-111q40 68 79 98q33 24 84 24q10 0 21 -1zM130 632l93 162l67 -38l-110 -149z" />
<glyph unicode="&#x156;" horiz-adv-x="530" d="M92 739h147q123 0 181.5 -48.5t58.5 -153.5q0 -152 -121 -203l143 -334h-102l-119 312q-33 -5 -77 -5h-26v-307h-85v739zM177 667v-291q12 -1 24 -1q31 0 57 5q35 5 66.5 21t48.5 49.5t17 82.5q0 73 -37 105q-35 30 -106 30h-9zM263 -315l-45 37q41 47 41 94 q0 17 -10.5 34.5t-10.5 34.5q0 16 12 27.5t30 11.5q24 0 38.5 -23t14.5 -60q0 -76 -70 -156z" />
<glyph unicode="&#x157;" horiz-adv-x="380" d="M118 -315l-45 37q41 47 41 94q0 17 -10.5 34.5t-10.5 34.5q0 16 12 27.5t30 11.5q24 0 38.5 -23t14.5 -60q0 -76 -70 -156zM349 549l-5 -78q-7 1 -14 1q-45 0 -82 -28q-42 -32 -83 -120v-324h-84v539h84v-111q40 68 79 98q33 24 84 24q10 0 21 -1z" />
<glyph unicode="&#x158;" horiz-adv-x="530" d="M92 739h147q123 0 181.5 -48.5t58.5 -153.5q0 -152 -121 -203l143 -334h-102l-119 312q-33 -5 -77 -5h-26v-307h-85v739zM177 667v-291q12 -1 24 -1q31 0 57 5q35 5 66.5 21t48.5 49.5t17 82.5q0 73 -37 105q-35 30 -106 30h-9zM255 880l96 80l39 -36l-103 -101h-64 l-106 99l38 38z" />
<glyph unicode="&#x159;" horiz-adv-x="380" d="M349 549l-5 -78q-7 1 -14 1q-45 0 -82 -28q-42 -32 -83 -120v-324h-84v539h84v-111q40 68 79 98q33 24 84 24q10 0 21 -1zM173 680l96 80l39 -36l-103 -101h-64l-106 99l38 38z" />
<glyph unicode="&#x15a;" horiz-adv-x="450" d="M393 717l-23 -70q-59 32 -128 32q-46 0 -77 -23.5t-31 -68.5q0 -35 21.5 -69.5t52.5 -61.5l70 -59q37 -33 68.5 -64t53 -75.5t21.5 -93.5q0 -82 -57 -128.5t-148 -46.5q-109 0 -192 48l28 80q76 -56 165 -56q52 0 83 27t31 73q0 37 -21.5 72t-53.5 63l-68 60 q-38 32 -69.5 62t-53 72.5t-21.5 89.5q0 81 55.5 126.5t137.5 45.5q73 0 156 -35zM174 828l92 161l68 -39l-110 -147z" />
<glyph unicode="&#x15b;" horiz-adv-x="383" d="M206 555q50 0 119 -23l-16 -69q-57 24 -94 24t-58.5 -19t-21.5 -53q0 -31 21.5 -56t52.5 -45l62 -42q31 -22 52.5 -58t21.5 -83q0 -72 -45 -108.5t-117 -36.5q-79 0 -146 31l21 71q60 -35 117 -35q40 0 61.5 20.5t21.5 55.5q0 32 -21.5 58.5t-52.5 46.5l-62 43 q-31 22 -52.5 56t-21.5 77q0 69 45 107t113 38zM160 632l93 162l67 -38l-110 -149z" />
<glyph unicode="&#x15c;" horiz-adv-x="450" d="M393 717l-23 -70q-59 32 -128 32q-46 0 -77 -23.5t-31 -68.5q0 -35 21.5 -69.5t52.5 -61.5l70 -59q37 -33 68.5 -64t53 -75.5t21.5 -93.5q0 -82 -57 -128.5t-148 -46.5q-109 0 -192 48l28 80q76 -56 165 -56q52 0 83 27t31 73q0 37 -21.5 72t-53.5 63l-68 60 q-38 32 -69.5 62t-53 72.5t-21.5 89.5q0 81 55.5 126.5t137.5 45.5q73 0 156 -35zM231 962l140 -121l-40 -40l-99 80l-97 -80l-41 35z" />
<glyph unicode="&#x15d;" horiz-adv-x="383" d="M206 555q50 0 119 -23l-16 -69q-57 24 -94 24t-58.5 -19t-21.5 -53q0 -31 21.5 -56t52.5 -45l62 -42q31 -22 52.5 -58t21.5 -83q0 -72 -45 -108.5t-117 -36.5q-79 0 -146 31l21 71q60 -35 117 -35q40 0 61.5 20.5t21.5 55.5q0 32 -21.5 58.5t-52.5 46.5l-62 43 q-31 22 -52.5 56t-21.5 77q0 69 45 107t113 38zM206 767l139 -121l-40 -40l-99 80l-97 -80l-41 34z" />
<glyph unicode="&#x15e;" horiz-adv-x="450" d="M393 717l-23 -70q-59 32 -128 32q-46 0 -77 -23.5t-31 -68.5q0 -35 21.5 -69.5t52.5 -61.5l70 -59q37 -33 68.5 -64t53 -75.5t21.5 -93.5q0 -75 -48 -120.5t-126 -52.5l-8 -60q93 -19 93 -96q0 -49 -34.5 -71t-85.5 -22q-34 0 -69 10l12 46q29 -9 52 -9q64 0 64 50 q0 26 -21 38.5t-65 15.5l11 97q-99 4 -172 47l28 80q76 -56 165 -56q52 0 83 27t31 73q0 37 -21.5 72t-53.5 63l-68 60q-38 32 -69.5 62t-53 72.5t-21.5 89.5q0 81 55.5 126.5t137.5 45.5q73 0 156 -35z" />
<glyph unicode="&#x15f;" horiz-adv-x="383" d="M206 555q50 0 119 -23l-16 -69q-57 24 -94 24t-58.5 -19t-21.5 -53q0 -31 21.5 -56t52.5 -45l62 -42q31 -22 52.5 -58t21.5 -83q0 -66 -37.5 -102t-100.5 -42l-8 -56q93 -19 93 -96q0 -49 -34.5 -71t-85.5 -22q-34 0 -69 10l12 46q29 -9 52 -9q64 0 64 50q0 26 -21 38.5 t-65 15.5l11 94q-71 7 -119 30l21 71q60 -35 117 -35q40 0 61.5 20.5t21.5 55.5q0 32 -21.5 58.5t-52.5 46.5l-62 43q-31 22 -52.5 56t-21.5 77q0 69 45 107t113 38z" />
<glyph unicode="&#x160;" horiz-adv-x="450" d="M393 717l-23 -70q-59 32 -128 32q-46 0 -77 -23.5t-31 -68.5q0 -35 21.5 -69.5t52.5 -61.5l70 -59q37 -33 68.5 -64t53 -75.5t21.5 -93.5q0 -82 -57 -128.5t-148 -46.5q-109 0 -192 48l28 80q76 -56 165 -56q52 0 83 27t31 73q0 37 -21.5 72t-53.5 63l-68 60 q-38 32 -69.5 62t-53 72.5t-21.5 89.5q0 81 55.5 126.5t137.5 45.5q73 0 156 -35zM228 880l96 80l39 -36l-103 -101h-64l-106 99l38 38z" />
<glyph unicode="&#x161;" horiz-adv-x="383" d="M206 555q50 0 119 -23l-16 -69q-57 24 -94 24t-58.5 -19t-21.5 -53q0 -31 21.5 -56t52.5 -45l62 -42q31 -22 52.5 -58t21.5 -83q0 -72 -45 -108.5t-117 -36.5q-79 0 -146 31l21 71q60 -35 117 -35q40 0 61.5 20.5t21.5 55.5q0 32 -21.5 58.5t-52.5 46.5l-62 43 q-31 22 -52.5 56t-21.5 77q0 69 45 107t113 38zM204 680l96 80l39 -36l-103 -101h-64l-106 99l38 38z" />
<glyph unicode="&#x162;" horiz-adv-x="450" d="M468 667h-202v-667h-18l-9 -69q93 -19 93 -96q0 -49 -34.5 -71t-85.5 -22q-34 0 -69 10l12 46q29 -9 52 -9q64 0 64 50q0 26 -21 38.5t-65 15.5l13 107h-17v667h-199v72h486v-72z" />
<glyph unicode="&#x163;" horiz-adv-x="326" d="M193 -315l-45 37q41 47 41 94q0 17 -10.5 34.5t-10.5 34.5q0 16 12 27.5t30 11.5q24 0 38.5 -23t14.5 -60q0 -76 -70 -156zM304 78l15 -70q-42 -21 -103 -21q-71 0 -99 34.5t-28 116.5v337h-62v64h62v179l85 21v-200h124v-64h-124v-326q0 -48 13 -68.5t45 -20.5 q38 0 72 18z" />
<glyph unicode="&#x164;" horiz-adv-x="450" d="M468 667h-202v-667h-85v667h-199v72h486v-72zM222 880l96 80l39 -36l-103 -101h-64l-106 99l38 38z" />
<glyph unicode="&#x165;" horiz-adv-x="326" d="M304 78l15 -70q-42 -21 -103 -21q-71 0 -99 34.5t-28 116.5v337h-62v64h62v179l85 21v-200h124v-64h-124v-326q0 -48 13 -68.5t45 -20.5q38 0 72 18zM297 621l-45 37q42 50 42 94q0 17 -10.5 34.5t-10.5 34.5q0 16 11.5 27.5t29.5 11.5q24 0 38.5 -23t14.5 -60 q0 -74 -70 -156z" />
<glyph unicode="&#x166;" horiz-adv-x="450" d="M468 667h-202v-667h-85v667h-199v72h486v-72zM396 895h-308v66h308v-66z" />
<glyph unicode="&#x167;" horiz-adv-x="311" d="M299 78l15 -70q-42 -21 -103 -21q-71 0 -99 34.5t-28 116.5v176h-62v60h62v101h-62v64h62v179l85 21v-200h124v-64h-124v-101h124v-60h-124v-165q0 -48 13 -68.5t45 -20.5q38 0 72 18z" />
<glyph unicode="&#x168;" horiz-adv-x="628" d="M541 739v-510q0 -108 -56 -175t-176 -67q-119 0 -170.5 66t-51.5 174v512h86v-494q0 -90 31.5 -136t110.5 -46t110 48.5t31 135.5v492h85zM434 897l33 -39q-45 -50 -95 -50q-26 0 -55.5 15t-46.5 15q-24 0 -62 -30l-32 41q52 49 97 49q25 0 54.5 -14.5t47.5 -14.5 q24 0 59 28z" />
<glyph unicode="&#x169;" horiz-adv-x="529" d="M79 539h85v-380q0 -54 15.5 -75t49.5 -21q60 0 135 70v406h85v-539h-76l-6 61q-49 -38 -87.5 -56t-82.5 -18q-57 0 -87.5 35t-30.5 122v395zM370 718l34 -38q-44 -54 -95 -54q-29 0 -57 15.5t-44 15.5q-5 0 -9.5 -0.5t-9.5 -3t-8 -3.5t-9.5 -5.5t-8 -6t-9.5 -7.5t-10 -7 l-31 41q49 52 96 52q27 0 55.5 -15t44.5 -15q26 0 61 31z" />
<glyph unicode="&#x16a;" horiz-adv-x="628" d="M541 739v-510q0 -108 -56 -175t-176 -67q-119 0 -170.5 66t-51.5 174v512h86v-494q0 -90 31.5 -136t110.5 -46t110 48.5t31 135.5v492h85zM454 832h-273v60h273v-60z" />
<glyph unicode="&#x16b;" horiz-adv-x="529" d="M79 539h85v-380q0 -54 15.5 -75t49.5 -21q60 0 135 70v406h85v-539h-76l-6 61q-49 -38 -87.5 -56t-82.5 -18q-57 0 -87.5 35t-30.5 122v395zM400 632h-273v60h273v-60z" />
<glyph unicode="&#x16c;" horiz-adv-x="628" d="M541 739v-510q0 -108 -56 -175t-176 -67q-119 0 -170.5 66t-51.5 174v512h86v-494q0 -90 31.5 -136t110.5 -46t110 48.5t31 135.5v492h85zM404 953l54 -6q-8 -68 -44.5 -106.5t-95.5 -38.5t-96 38.5t-43 106.5l54 6q21 -92 85 -92q66 0 86 92z" />
<glyph unicode="&#x16d;" horiz-adv-x="529" d="M79 539h85v-380q0 -54 15.5 -75t49.5 -21q60 0 135 70v406h85v-539h-76l-6 61q-49 -38 -87.5 -56t-82.5 -18q-57 0 -87.5 35t-30.5 122v395zM344 759l62 -6q-7 -67 -45 -103t-100 -36q-59 0 -95 36t-42 103l61 6q9 -45 27 -67.5t52 -22.5q64 0 80 90z" />
<glyph unicode="&#x16e;" horiz-adv-x="628" d="M541 739v-510q0 -108 -56 -175t-176 -67q-119 0 -170.5 66t-51.5 174v512h86v-494q0 -90 31.5 -136t110.5 -46t110 48.5t31 135.5v492h85zM419 907q0 -48 -29 -81.5t-74 -33.5q-44 0 -72.5 33.5t-28.5 81.5t29 81.5t72 33.5q45 0 74 -33.5t29 -81.5zM364 907 q0 27 -13 45.5t-35 18.5t-34.5 -18.5t-12.5 -45.5t12.5 -45t34.5 -18t35 19t13 44z" />
<glyph unicode="&#x16f;" horiz-adv-x="529" d="M79 539h85v-380q0 -54 15.5 -75t49.5 -21q60 0 135 70v406h85v-539h-76l-6 61q-49 -38 -87.5 -56t-82.5 -18q-57 0 -87.5 35t-30.5 122v395zM365 707q0 -48 -29 -81.5t-74 -33.5q-44 0 -72.5 33.5t-28.5 81.5t29 81.5t72 33.5q45 0 74 -33.5t29 -81.5zM310 707 q0 27 -13 45.5t-35 18.5t-34.5 -18.5t-12.5 -45.5t12.5 -45t34.5 -18t35 19t13 44z" />
<glyph unicode="&#x170;" horiz-adv-x="628" d="M541 739v-510q0 -108 -56 -175t-176 -67q-119 0 -170.5 66t-51.5 174v512h86v-494q0 -90 31.5 -136t110.5 -46t110 48.5t31 135.5v492h85zM546 960l-116 -150l-57 8l74 142h99zM363 960l-114 -150l-57 8l73 142h98z" />
<glyph unicode="&#x171;" horiz-adv-x="529" d="M79 539h85v-380q0 -54 15.5 -75t49.5 -21q60 0 135 70v406h85v-539h-76l-6 61q-49 -38 -87.5 -56t-82.5 -18q-57 0 -87.5 35t-30.5 122v395zM492 760l-116 -150l-57 8l74 142h99zM309 760l-114 -150l-57 8l73 142h98z" />
<glyph unicode="&#x172;" horiz-adv-x="628" d="M409 -152l17 -50q-45 -25 -89 -25q-99 0 -99 101q0 63 50 114q-201 12 -201 239v512h86v-494q0 -90 31.5 -136t110.5 -46t110 48.5t31 135.5v492h85v-510q0 -85 -35.5 -146.5t-110.5 -83.5q-41 -26 -64 -57.5t-23 -59.5q0 -52 43 -52q25 0 58 18z" />
<glyph unicode="&#x173;" horiz-adv-x="529" d="M442 -162l17 -50q-45 -25 -89 -25q-99 0 -99 101q0 42 25.5 82.5t74.5 70.5l-4 44q-49 -38 -87.5 -56t-82.5 -18q-57 0 -87.5 35t-30.5 122v395h85v-380q0 -54 15.5 -75t49.5 -21q60 0 135 70v406h85v-539q-50 -25 -79 -61t-29 -67q0 -52 43 -52q25 0 58 18z" />
<glyph unicode="&#x174;" horiz-adv-x="763" d="M746 739l-125 -739h-67l-173 594l-174 -594h-67l-124 739h91l85 -575l159 575h68l159 -575l86 575h82zM385 962l140 -121l-40 -40l-99 80l-97 -80l-41 35z" />
<glyph unicode="&#x175;" horiz-adv-x="662" d="M640 539l-124 -539h-58l-126 418l-127 -418h-58l-128 539h87l82 -403l117 403h58l118 -402l77 402h82zM336 767l139 -121l-40 -40l-99 80l-97 -80l-41 34z" />
<glyph unicode="&#x176;" horiz-adv-x="476" d="M491 739l-210 -497v-242h-85v240l-212 499h97l159 -409l162 409h89zM242 962l140 -121l-40 -40l-99 80l-97 -80l-41 35z" />
<glyph unicode="&#x177;" horiz-adv-x="435" d="M432 539l-172 -585q-29 -99 -75.5 -147.5t-128.5 -81.5l-31 69q62 28 97.5 66.5t56.5 106.5l16 52l-32 2l-156 518h93l123 -459l121 459h88zM226 767l139 -121l-40 -40l-99 80l-97 -80l-41 34z" />
<glyph unicode="&#x178;" horiz-adv-x="476" d="M491 739l-210 -497v-242h-85v240l-212 499h97l159 -409l162 409h89zM194 863q0 -24 -15.5 -39t-37.5 -15q-25 0 -40.5 15t-15.5 39t16 40t40 16q23 0 38 -16t15 -40zM396 863q0 -24 -16.5 -39t-41.5 -15q-21 0 -37 15.5t-16 38.5q0 24 15.5 40t37.5 16q25 0 41.5 -16 t16.5 -40z" />
<glyph unicode="&#x179;" horiz-adv-x="443" d="M443 0h-432l-11 60l331 605h-304v74h402l11 -55l-331 -610h334v-74zM186 828l92 161l68 -39l-110 -147z" />
<glyph unicode="&#x17a;" horiz-adv-x="387" d="M360 0h-326l-3 53l226 420h-213v66h306l6 -53l-227 -419h231v-67zM165 632l93 162l67 -38l-110 -149z" />
<glyph unicode="&#x17b;" horiz-adv-x="443" d="M443 0h-432l-11 60l331 605h-304v74h402l11 -55l-331 -610h334v-74zM297 913q0 -25 -16 -41t-39 -16q-24 0 -39 16t-15 41t15.5 41.5t38.5 16.5t39 -16.5t16 -41.5z" />
<glyph unicode="&#x17c;" horiz-adv-x="387" d="M360 0h-326l-3 53l226 420h-213v66h306l6 -53l-227 -419h231v-67zM266 713q0 -25 -16 -41t-39 -16q-24 0 -39 16t-15 41t15.5 41.5t38.5 16.5t39 -16.5t16 -41.5z" />
<glyph unicode="&#x17d;" horiz-adv-x="443" d="M443 0h-432l-11 60l331 605h-304v74h402l11 -55l-331 -610h334v-74zM243 862l96 79l39 -36l-103 -101h-64l-106 99l39 38z" />
<glyph unicode="&#x17e;" horiz-adv-x="387" d="M360 0h-326l-3 53l226 420h-213v66h306l6 -53l-227 -419h231v-67zM209 680l96 80l39 -36l-103 -101h-64l-106 99l38 38z" />
<glyph unicode="&#x17f;" horiz-adv-x="258" d="M354 805l-18 -64q-44 19 -86 19q-48 0 -66 -26.5t-18 -89.5v-644h-85v646q0 92 37 136.5t123 44.5q55 0 113 -22z" />
<glyph unicode="&#x192;" horiz-adv-x="374" d="M224 613l-19 -148h151l-7 -65h-153l-46 -364q-19 -133 -78 -185.5t-156 -61.5l-7 66q141 13 163 185l45 360h-86l7 65h87l20 156q14 109 61 154t131 45q58 0 111 -21l-20 -64q-39 18 -86 18q-56 0 -82 -30t-36 -110z" />
<glyph unicode="&#x1a0;" horiz-adv-x="627" d="M580 384q0 -397 -276 -397q-260 0 -260 368q0 79 13.5 146t44 125.5t86 92t131.5 33.5q167 0 229 -161q39 23 39 112v51h69v-47q0 -141 -92 -171q16 -70 16 -152zM490 380q0 301 -176 301q-181 0 -181 -322q0 -301 175 -301q182 0 182 322z" />
<glyph unicode="&#x1a1;" horiz-adv-x="500" d="M49 264q0 131 51 209.5t158 78.5q146 0 184 -156q34 25 34 108v50h67v-47q0 -141 -91 -169q3 -30 3 -61q0 -134 -50.5 -212t-155.5 -78q-102 0 -151 75t-49 202zM136 268q0 -212 115 -212q117 0 117 219q0 209 -114 209q-118 0 -118 -216z" />
<glyph unicode="&#x1af;" horiz-adv-x="628" d="M541 739v-154q32 11 44 39.5t12 80.5v50h67v-46q0 -85 -30 -126.5t-93 -49.5v-304q0 -108 -56 -175t-176 -67q-119 0 -170.5 66t-51.5 174v512h86v-494q0 -90 31.5 -136t110.5 -46t110 48.5t31 135.5v492h85z" />
<glyph unicode="&#x1b0;" horiz-adv-x="529" d="M79 539h85v-380q0 -54 15.5 -75t49.5 -21q60 0 135 70v406h85v-154q30 11 42.5 39.5t12.5 79.5v50h66v-47q0 -83 -30 -125t-91 -51v-331h-76l-6 61q-49 -38 -87.5 -56t-82.5 -18q-57 0 -87.5 35t-30.5 122v395z" />
<glyph unicode="&#x1cd;" horiz-adv-x="520" d="M430 0l-63 215h-224l-61 -215h-86l211 739h97l220 -739h-94zM253 661l-92 -377h187zM255 862l96 79l39 -36l-103 -101h-64l-106 99l39 38z" />
<glyph unicode="&#x1ce;" horiz-adv-x="456" d="M385 0h-71l-9 52q-2 -1 -17.5 -12.5t-21 -15t-21 -12.5t-25.5 -12.5t-25.5 -7t-30.5 -3.5q-58 0 -89 41t-31 103q0 57 34.5 92.5t86.5 49t126 15.5v102q0 52 -18 73t-55 21q-53 0 -130 -38l-19 65q102 39 161 39q78 0 111.5 -40.5t33.5 -117.5v-242q0 -47 10 -152z M292 102v135q-27 -1 -47 -2.5t-44.5 -7.5t-40 -15.5t-26.5 -27.5t-11 -42q0 -41 19 -65.5t52 -24.5q32 0 98 50zM231 680l96 80l39 -36l-103 -101h-64l-106 99l38 38z" />
<glyph unicode="&#x1cf;" horiz-adv-x="270" d="M177 0h-84v739h84v-739zM137 862l96 79l39 -36l-103 -101h-64l-106 99l39 38z" />
<glyph unicode="&#x1d0;" horiz-adv-x="242" d="M164 0h-86v539h86v-539zM119 680l96 80l39 -36l-103 -101h-64l-106 99l38 38z" />
<glyph unicode="&#x1d1;" horiz-adv-x="624" d="M580 384q0 -397 -276 -397q-260 0 -260 368q0 79 13.5 146t44 125.5t86 92t131.5 33.5q73 0 125.5 -30t81 -83.5t41.5 -116.5t13 -138zM490 380q0 301 -176 301q-181 0 -181 -322q0 -301 175 -301q182 0 182 322zM314 880l96 80l39 -36l-103 -101h-64l-106 99l38 38z" />
<glyph unicode="&#x1d2;" horiz-adv-x="513" d="M52 264q0 131 51 209.5t158 78.5q197 0 197 -275q0 -134 -50.5 -212t-155.5 -78q-102 0 -151 75t-49 202zM139 268q0 -212 115 -212q117 0 117 219q0 209 -114 209q-118 0 -118 -216zM259 680l96 80l39 -36l-103 -101h-64l-106 99l38 38z" />
<glyph unicode="&#x1d3;" horiz-adv-x="628" d="M541 739v-510q0 -108 -56 -175t-176 -67q-119 0 -170.5 66t-51.5 174v512h86v-494q0 -90 31.5 -136t110.5 -46t110 48.5t31 135.5v492h85zM315 880l96 80l39 -36l-103 -101h-64l-106 99l38 38z" />
<glyph unicode="&#x1d4;" horiz-adv-x="529" d="M79 539h85v-380q0 -54 15.5 -75t49.5 -21q60 0 135 70v406h85v-539h-76l-6 61q-49 -38 -87.5 -56t-82.5 -18q-57 0 -87.5 35t-30.5 122v395zM261 680l96 80l39 -36l-103 -101h-64l-106 99l38 38z" />
<glyph unicode="&#x1fa;" horiz-adv-x="540" d="M379 666q0 -35 -16 -63.5t-43 -41.5l223 -561h-98l-68 186h-243l-67 -186h-90l224 587q-26 31 -26 79t29 81.5t72 33.5q45 0 74 -33.5t29 -81.5zM344 255l-91 278l-89 -278h180zM228 843l91 157l65 -37l-107 -145zM324 666q0 27 -13 45.5t-35 18.5t-34.5 -18.5 t-12.5 -45.5q0 -33 14 -48h54l3 -7q24 18 24 55z" />
<glyph unicode="&#x1fb;" horiz-adv-x="456" d="M385 0h-71l-9 52q-2 -1 -17.5 -12.5t-21 -15t-21 -12.5t-25.5 -12.5t-25.5 -7t-30.5 -3.5q-58 0 -89 41t-31 103q0 57 34.5 92.5t86.5 49t126 15.5v102q0 52 -18 73t-55 21q-53 0 -130 -38l-19 65q102 39 161 39q78 0 111.5 -40.5t33.5 -117.5v-242q0 -47 10 -152z M292 102v135q-27 -1 -47 -2.5t-44.5 -7.5t-40 -15.5t-26.5 -27.5t-11 -42q0 -41 19 -65.5t52 -24.5q32 0 98 50zM335 695q0 -47 -29 -79.5t-74 -32.5q-44 0 -72.5 32.5t-28.5 79.5q0 46 29 78.5t72 32.5q45 0 74 -32.5t29 -78.5zM280 695q0 26 -13 44t-35 18t-34.5 -18 t-12.5 -44t12.5 -44t34.5 -18t35 18.5t13 43.5zM186 852l91 157l65 -37l-107 -145z" />
<glyph unicode="&#x1fc;" horiz-adv-x="725" d="M700 0h-267l-34 231h-229l-98 -231h-101l344 739h354v-71h-257l39 -243h208v-70h-199l46 -284h194v-71zM391 298l-52 358l-137 -358h189zM365 828l92 161l68 -39l-110 -147z" />
<glyph unicode="&#x1fd;" horiz-adv-x="669" d="M466 -14q-85 0 -132 73q-89 -70 -162 -70q-60 0 -95.5 42t-35.5 109q0 88 65 132t178 47v62q0 105 -67 105q-51 0 -130 -38l-19 65q102 39 159 39q83 0 108 -92q58 94 129 94q81 0 120.5 -66t39.5 -172q0 -24 -3 -47h-264q6 -216 121 -216q53 0 115 47l21 -67 q-68 -47 -148 -47zM197 52q48 0 114 53q-25 64 -28 161q-77 -2 -120.5 -30.5t-43.5 -85.5q0 -42 22 -70t56 -28zM454 491q-44 0 -70 -48t-31 -118h192v10q0 156 -91 156zM290 632l93 162l67 -38l-110 -149z" />
<glyph unicode="&#x1fe;" horiz-adv-x="627" d="M580 384q0 -397 -276 -397q-113 0 -178 70l-59 -77l-52 56l68 88q-39 86 -39 231q0 79 13.5 146t44 125.5t86 92t131.5 33.5q125 0 190 -90l75 94l50 -55l-87 -110q33 -84 33 -207zM133 359q0 -96 16 -157l305 389q-45 90 -140 90q-181 0 -181 -322zM490 380 q0 74 -11 129l-299 -382q43 -69 128 -69q182 0 182 322zM271 832l93 162l67 -38l-110 -149z" />
<glyph unicode="&#x1ff;" horiz-adv-x="513" d="M52 264q0 131 51 209.5t158 78.5q90 0 139 -60l64 64l56 -59l-80 -81q18 -57 18 -139q0 -134 -50.5 -212t-155.5 -78q-99 0 -150 73l-63 -62l-54 59l81 81q-14 52 -14 126zM371 275q0 39 -5 79l-209 -222q28 -76 97 -76q117 0 117 219zM139 268q0 -35 3 -65l205 220 q-28 61 -90 61q-118 0 -118 -216zM215 632l93 162l67 -38l-110 -149z" />
<glyph unicode="&#x218;" horiz-adv-x="450" d="M393 717l-23 -70q-59 32 -128 32q-46 0 -77 -23.5t-31 -68.5q0 -35 21.5 -69.5t52.5 -61.5l70 -59q37 -33 68.5 -64t53 -75.5t21.5 -93.5q0 -82 -57 -128.5t-148 -46.5q-109 0 -192 48l28 80q76 -56 165 -56q52 0 83 27t31 73q0 37 -21.5 72t-53.5 63l-68 60 q-38 32 -69.5 62t-53 72.5t-21.5 89.5q0 81 55.5 126.5t137.5 45.5q73 0 156 -35zM214 -315l-45 37q41 47 41 94q0 17 -10.5 34.5t-10.5 34.5q0 16 12 27.5t30 11.5q24 0 38.5 -23t14.5 -60q0 -76 -70 -156z" />
<glyph unicode="&#x219;" horiz-adv-x="383" d="M175 -315l-45 37q41 47 41 94q0 17 -10.5 34.5t-10.5 34.5q0 16 12 27.5t30 11.5q24 0 38.5 -23t14.5 -60q0 -76 -70 -156zM206 555q50 0 119 -23l-16 -69q-57 24 -94 24t-58.5 -19t-21.5 -53q0 -31 21.5 -56t52.5 -45l62 -42q31 -22 52.5 -58t21.5 -83q0 -72 -45 -108.5 t-117 -36.5q-79 0 -146 31l21 71q60 -35 117 -35q40 0 61.5 20.5t21.5 55.5q0 32 -21.5 58.5t-52.5 46.5l-62 43q-31 22 -52.5 56t-21.5 77q0 69 45 107t113 38z" />
<glyph unicode="&#x21a;" horiz-adv-x="450" d="M214 -315l-45 37q41 47 41 94q0 17 -10.5 34.5t-10.5 34.5q0 16 12 27.5t30 11.5q24 0 38.5 -23t14.5 -60q0 -76 -70 -156zM468 667h-202v-667h-85v667h-199v72h486v-72z" />
<glyph unicode="&#x21b;" horiz-adv-x="326" d="M193 -315l-45 37q41 47 41 94q0 17 -10.5 34.5t-10.5 34.5q0 16 12 27.5t30 11.5q24 0 38.5 -23t14.5 -60q0 -76 -70 -156zM304 78l15 -70q-42 -21 -103 -21q-71 0 -99 34.5t-28 116.5v337h-62v64h62v179l85 21v-200h124v-64h-124v-326q0 -48 13 -68.5t45 -20.5 q38 0 72 18z" />
<glyph unicode="&#x226;" horiz-adv-x="520" d="M430 0l-63 215h-224l-61 -215h-86l211 739h97l220 -739h-94zM253 661l-92 -377h187zM309 913q0 -25 -16 -41t-39 -16q-24 0 -39 16t-15 41t15.5 41.5t38.5 16.5t39 -16.5t16 -41.5z" />
<glyph unicode="&#x227;" horiz-adv-x="456" d="M385 0h-71l-9 52q-2 -1 -17.5 -12.5t-21 -15t-21 -12.5t-25.5 -12.5t-25.5 -7t-30.5 -3.5q-58 0 -89 41t-31 103q0 57 34.5 92.5t86.5 49t126 15.5v102q0 52 -18 73t-55 21q-53 0 -130 -38l-19 65q102 39 161 39q78 0 111.5 -40.5t33.5 -117.5v-242q0 -47 10 -152z M292 102v135q-27 -1 -47 -2.5t-44.5 -7.5t-40 -15.5t-26.5 -27.5t-11 -42q0 -41 19 -65.5t52 -24.5q32 0 98 50zM288 713q0 -25 -16 -41t-39 -16q-24 0 -39 16t-15 41t15.5 41.5t38.5 16.5t39 -16.5t16 -41.5z" />
<glyph unicode="&#x228;" horiz-adv-x="498" d="M468 0h-178l-9 -69q93 -19 93 -96q0 -49 -34.5 -71t-85.5 -22q-34 0 -69 10l12 46q29 -9 52 -9q64 0 64 50q0 26 -21 38.5t-65 15.5l13 107h-148v739h358v-71h-273v-248h246v-70h-246v-279h291v-71z" />
<glyph unicode="&#x229;" d="M416 269h-285q1 -112 30.5 -163t98.5 -51q54 0 129 39l20 -65q-68 -35 -132 -41l-8 -57q93 -19 93 -96q0 -49 -34.5 -71t-85.5 -22q-34 0 -69 10l12 46q29 -9 52 -9q64 0 64 50q0 26 -21 38.5t-65 15.5l11 96q-172 16 -172 276q0 287 195 287q171 0 171 -227 q0 -33 -4 -56zM245 491q-101 0 -113 -166h208v7q0 78 -20 118q-21 41 -75 41z" />
<glyph unicode="&#x232;" horiz-adv-x="476" d="M491 739l-210 -497v-242h-85v240l-212 499h97l159 -409l162 409h89zM378 832h-273v60h273v-60z" />
<glyph unicode="&#x233;" horiz-adv-x="436" d="M430 539l-172 -585q-29 -99 -75.5 -147.5t-128.5 -81.5l-31 69q62 28 97.5 66.5t56.5 106.5l16 52l-32 2l-156 518h93l123 -459l121 459h88zM362 632h-273v60h273v-60z" />
<glyph unicode="&#x237;" horiz-adv-x="242" d="M79 539h85v-524q0 -117 -39 -169.5t-152 -77.5l-16 69q46 12 70.5 27.5t38 50.5t13.5 95v529z" />
<glyph unicode="&#x2bc;" horiz-adv-x="130" d="M37 542l-52 44q49 58 49 109q0 19 -13 39.5t-13 40.5t13.5 33.5t35.5 13.5q30 0 47.5 -27t17.5 -70q0 -90 -85 -183z" />
<glyph unicode="&#x2c6;" horiz-adv-x="238" d="M120 767l139 -121l-40 -40l-99 80l-97 -80l-41 34z" />
<glyph unicode="&#x2c7;" horiz-adv-x="250" d="M123 680l96 80l39 -36l-103 -101h-64l-106 99l38 38z" />
<glyph unicode="&#x2d8;" horiz-adv-x="295" d="M222 759l62 -6q-7 -67 -45 -103t-100 -36q-59 0 -95 36t-42 103l61 6q9 -45 27 -67.5t52 -22.5q64 0 80 90z" />
<glyph unicode="&#x2d9;" horiz-adv-x="95" d="M99 713q0 -25 -16 -41t-39 -16q-24 0 -39 16t-15 41t15.5 41.5t38.5 16.5t39 -16.5t16 -41.5z" />
<glyph unicode="&#x2da;" horiz-adv-x="189" d="M193 706q0 -48 -29 -81.5t-74 -33.5q-44 0 -72.5 33.5t-28.5 81.5t29 81.5t72 33.5q45 0 74 -33.5t29 -81.5zM138 706q0 27 -13 45.5t-35 18.5t-34.5 -18.5t-12.5 -45.5t12.5 -45t34.5 -18t35 19t13 44z" />
<glyph unicode="&#x2db;" horiz-adv-x="204" d="M158 -163l17 -50q-45 -25 -89 -25q-99 0 -99 101q0 46 30.5 90t88.5 74l59 -28q-50 -25 -79 -61t-29 -67q0 -52 43 -52q25 0 58 18z" />
<glyph unicode="&#x2dc;" horiz-adv-x="316" d="M259 718l34 -38q-43 -54 -95 -54q-29 0 -57 15.5t-44 15.5q-5 0 -9.5 -0.5t-9.5 -3t-8 -3.5t-9.5 -5.5t-8 -6t-9.5 -7.5t-10 -7l-31 41q49 52 96 52q27 0 55.5 -15t44.5 -15q26 0 61 31z" />
<glyph unicode="&#x2dd;" horiz-adv-x="351" d="M353 760l-116 -150l-57 8l74 142h99zM170 760l-114 -150l-57 8l73 142h98z" />
<glyph unicode="&#x384;" horiz-adv-x="79" d="M-74 619l68 177l74 -24l-88 -168z" />
<glyph unicode="&#x385;" horiz-adv-x="516" d="M172 702q0 -23 -14.5 -37.5t-35.5 -14.5q-23 0 -38 14.5t-15 37.5t15.5 38t37.5 15q21 0 35.5 -15.5t14.5 -37.5zM414 702q0 -23 -15.5 -37.5t-38.5 -14.5q-21 0 -35.5 14.5t-14.5 37.5q0 22 14.5 37.5t35.5 15.5q23 0 38.5 -15.5t15.5 -37.5zM186 641l56 180l75 -22 l-77 -171z" />
<glyph unicode="&#x386;" horiz-adv-x="520" d="M430 0l-63 215h-224l-61 -215h-86l211 739h97l220 -739h-94zM253 661l-92 -377h187zM15 619l68 177l74 -24l-88 -168z" />
<glyph unicode="&#x387;" horiz-adv-x="216" d="M172 347q0 -25 -16.5 -42t-39.5 -17q-25 0 -41.5 17t-16.5 42t17 42t41 17q23 0 39.5 -17t16.5 -42z" />
<glyph unicode="&#x388;" horiz-adv-x="497" d="M469 0h-376v739h358v-71h-273v-248h246v-70h-246v-279h291v-71zM-80 619l68 177l74 -24l-88 -168z" />
<glyph unicode="&#x389;" horiz-adv-x="646" d="M553 0h-86v353h-289v-353h-86v739h86v-315h289v315h86v-739zM-81 619l68 177l74 -24l-88 -168z" />
<glyph unicode="&#x38a;" horiz-adv-x="270" d="M177 0h-84v739h84v-739zM-73 619l68 177l74 -24l-88 -168z" />
<glyph unicode="&#x38c;" horiz-adv-x="627" d="M580 384q0 -397 -276 -397q-260 0 -260 368q0 79 13.5 146t44 125.5t86 92t131.5 33.5q73 0 125.5 -30t81 -83.5t41.5 -116.5t13 -138zM490 380q0 301 -176 301q-181 0 -181 -322q0 -301 175 -301q182 0 182 322zM-57 619l68 177l74 -24l-88 -168z" />
<glyph unicode="&#x38e;" horiz-adv-x="464" d="M484 739l-210 -497v-242h-85v240l-212 499h97l159 -409l162 409h89zM-189 619l68 177l74 -24l-88 -168z" />
<glyph unicode="&#x38f;" horiz-adv-x="653" d="M598 0h-188l-19 58q55 83 84.5 161.5t29.5 191.5q0 120 -48 195t-133 75q-87 0 -136 -75.5t-49 -201.5q0 -197 114 -346l-20 -58h-187v68h112q-104 148 -104 338q0 163 75.5 255t197.5 92q123 0 193 -91t70 -242q0 -65 -8.5 -118t-28.5 -99.5t-31.5 -67.5t-40.5 -67h117 v-68zM-55 619l68 177l74 -24l-88 -168z" />
<glyph unicode="&#x390;" horiz-adv-x="250" d="M233 68l6 -68q-19 -4 -48 -4q-69 0 -91.5 40t-22.5 124v379h84v-379q0 -52 11 -72.5t37 -20.5q16 0 24 1zM45 702q0 -23 -14 -37.5t-35 -14.5q-22 0 -36.5 14.5t-14.5 37.5q0 24 14.5 38.5t36.5 14.5q21 0 35 -15t14 -38zM280 702q0 -23 -15 -37.5t-37 -14.5 q-21 0 -35 14.5t-14 37.5t14 38t35 15q22 0 37 -15.5t15 -37.5zM59 641l54 180l73 -22l-75 -171z" />
<glyph unicode="&#x391;" horiz-adv-x="520" d="M430 0l-63 215h-224l-61 -215h-86l211 739h97l220 -739h-94zM253 661l-92 -377h187z" />
<glyph unicode="&#x392;" horiz-adv-x="522" d="M496 210q0 -118 -63 -164t-182 -46h-159v739h162q218 0 218 -185q0 -113 -86 -158q110 -50 110 -186zM405 211q0 143 -158 143h-70v-284h79q75 0 112 31t37 110zM381 549q0 120 -129 120h-75v-249h60q144 0 144 129z" />
<glyph unicode="&#x393;" horiz-adv-x="434" d="M93 739h361v-71h-276v-668h-85v739z" />
<glyph unicode="&#x394;" horiz-adv-x="516" d="M505 56l-15 -56h-460l-18 57l215 687h73zM409 70l-147 565l-154 -565h301z" />
<glyph unicode="&#x2206;" horiz-adv-x="516" d="M505 56l-15 -56h-460l-18 57l215 687h73zM409 70l-147 565l-154 -565h301z" />
<glyph unicode="&#x395;" horiz-adv-x="497" d="M469 0h-376v739h358v-71h-273v-248h246v-70h-246v-279h291v-71z" />
<glyph unicode="&#x396;" horiz-adv-x="445" d="M440 0h-432l-11 60l331 605h-304v74h402l11 -55l-331 -610h334v-74z" />
<glyph unicode="&#x397;" horiz-adv-x="646" d="M553 0h-86v353h-289v-353h-86v739h86v-315h289v315h86v-739z" />
<glyph unicode="&#x398;" horiz-adv-x="627" d="M402 340h-165v66h165v-66zM580 384q0 -397 -276 -397q-260 0 -260 368q0 79 13.5 146t44 125.5t86 92t131.5 33.5q73 0 125.5 -30t81 -83.5t41.5 -116.5t13 -138zM490 380q0 301 -176 301q-181 0 -181 -322q0 -301 175 -301q182 0 182 322z" />
<glyph unicode="&#x399;" horiz-adv-x="270" d="M177 0h-84v739h84v-739z" />
<glyph unicode="&#x39a;" horiz-adv-x="539" d="M529 739l-218 -312l243 -427h-110l-186 359l-80 -116v-243h-86v739h86v-377l240 377h111z" />
<glyph unicode="&#x39b;" horiz-adv-x="496" d="M54 0l243 739h52l244 -739h-94l-178 589l-177 -589h-90z" />
<glyph unicode="&#x39c;" horiz-adv-x="751" d="M692 0h-87l-28 565l-181 -565h-49l-182 565l-29 -565h-76l42 739h83l190 -584l194 584h80z" />
<glyph unicode="&#x39d;" horiz-adv-x="672" d="M574 0h-63l-337 566v-566h-82v739h66l335 -558v558h81v-739z" />
<glyph unicode="&#x39e;" horiz-adv-x="475" d="M409 666h-359v73h359v-73zM50 73h375v-73h-375v73zM102 423h254v-74h-254v74z" />
<glyph unicode="&#x39f;" horiz-adv-x="627" d="M580 384q0 -397 -276 -397q-260 0 -260 368q0 79 13.5 146t44 125.5t86 92t131.5 33.5q73 0 125.5 -30t81 -83.5t41.5 -116.5t13 -138zM490 380q0 301 -176 301q-181 0 -181 -322q0 -301 175 -301q182 0 182 322z" />
<glyph unicode="&#x3a0;" horiz-adv-x="639" d="M549 0h-85v668h-287v-668h-85v739h457v-739z" />
<glyph unicode="&#x3a1;" horiz-adv-x="508" d="M485 511q0 -114 -58.5 -176.5t-167.5 -62.5q-53 0 -81 9v-281h-86v739h158q235 0 235 -228zM393 503q0 82 -35 123.5t-117 41.5h-63v-317q31 -9 71 -9q77 0 110.5 40.5t33.5 120.5z" />
<glyph unicode="&#x3a3;" horiz-adv-x="448" d="M226 378l-201 302l15 59h394v-71h-281l187 -288l-219 -309h321v-71h-426l-11 60z" />
<glyph unicode="&#x3a4;" horiz-adv-x="450" d="M468 667h-202v-667h-85v667h-199v72h486v-72z" />
<glyph unicode="&#x3a5;" horiz-adv-x="461" d="M484 739l-210 -497v-242h-85v240l-212 499h97l159 -409l162 409h89z" />
<glyph unicode="&#x3a6;" horiz-adv-x="642" d="M371 -82h-84v132q-68 6 -117.5 34.5t-76 73t-38.5 94t-12 107.5q0 60 12.5 113t40 100t76.5 78.5t115 39.5v138h84v-137q65 -7 113 -35t75 -71.5t39.5 -94t12.5 -108.5q0 -63 -12 -116t-38.5 -100t-74.5 -77t-115 -38v-133zM127 361q0 -219 163 -242v499 q-163 -24 -163 -257zM528 378q0 216 -160 240v-498q160 27 160 258z" />
<glyph unicode="&#x3a7;" horiz-adv-x="490" d="M396 0l-154 315l-151 -315h-96l193 385l-179 354h103l140 -288l134 288h96l-181 -354l198 -385h-103z" />
<glyph unicode="&#x3a8;" horiz-adv-x="658" d="M13 718l62 34q31 -29 42 -73.5t15 -118.5q4 -83 41 -140t113 -69v388h84v-387q142 25 153 208q2 72 13 117.5t43 74.5l62 -33q-39 -36 -41 -153q-11 -260 -230 -286v-280h-84v279q-223 21 -234 287q0 116 -39 152z" />
<glyph unicode="&#x3a9;" horiz-adv-x="642" d="M597 0h-188l-19 58q55 83 84.5 161.5t29.5 191.5q0 120 -48 195t-133 75q-87 0 -136 -75.5t-49 -201.5q0 -197 114 -346l-20 -58h-187v68h112q-104 148 -104 338q0 163 75.5 255t197.5 92q123 0 193 -91t70 -242q0 -65 -8.5 -118t-28.5 -99.5t-31.5 -67.5t-40.5 -67h117 v-68z" />
<glyph unicode="&#x2126;" horiz-adv-x="642" d="M597 0h-188l-19 58q55 83 84.5 161.5t29.5 191.5q0 120 -48 195t-133 75q-87 0 -136 -75.5t-49 -201.5q0 -197 114 -346l-20 -58h-187v68h112q-104 148 -104 338q0 163 75.5 255t197.5 92q123 0 193 -91t70 -242q0 -65 -8.5 -118t-28.5 -99.5t-31.5 -67.5t-40.5 -67h117 v-68z" />
<glyph unicode="&#x3aa;" horiz-adv-x="270" d="M90 863q0 -24 -16 -39t-38 -15q-25 0 -40.5 15t-15.5 39q0 25 15.5 40.5t40.5 15.5q23 0 38.5 -16t15.5 -40zM291 863q0 -24 -16 -39t-41 -15q-23 0 -38 15t-15 39t15 40t38 16q25 0 41 -16t16 -40zM177 0h-84v739h84v-739z" />
<glyph unicode="&#x3ab;" horiz-adv-x="461" d="M180 863q0 -24 -16 -39t-37 -15q-26 0 -42 15t-16 39q0 25 16.5 40.5t41.5 15.5q23 0 38 -16t15 -40zM381 863q0 -24 -16 -39t-41 -15q-22 0 -37.5 15t-15.5 39t15 40t38 16q25 0 41 -16t16 -40zM484 739l-210 -497v-242h-85v240l-212 499h97l159 -409l162 409h89z" />
<glyph unicode="&#x3ac;" horiz-adv-x="530" d="M518 21l-75 -33q-14 35 -37 99l-26 72q-36 -86 -71 -129t-88 -43q-85 0 -129 77t-44 202t44 205.5t131 80.5q59 0 92.5 -40.5t67.5 -128.5q20 60 63 169l73 -32q-34 -80 -94 -246q13 -32 42.5 -118t50.5 -135zM225 57q41 0 75 83q11 27 43 124q-4 13 -13 39l-16 50 l-15.5 41.5t-16.5 37.5t-17 25.5t-21 19t-23 5.5q-43 0 -63.5 -61.5t-20.5 -149.5q0 -94 22.5 -154t65.5 -60zM266 619l68 177l74 -24l-88 -168z" />
<glyph unicode="&#x3ad;" horiz-adv-x="376" d="M39 148q0 97 81 143q-67 37 -67 122q0 64 46.5 100.5t129.5 36.5q59 0 129 -24l-13 -67q-55 23 -113 23q-44 0 -67.5 -20t-23.5 -55q0 -40 31.5 -67.5t88.5 -28.5l45 -2l1 -55l-51 3h-12q-53 0 -82 -24q-33 -27 -33 -79q0 -48 29.5 -72.5t80.5 -24.5q50 0 110 21l12 -67 q-70 -21 -127 -21q-90 0 -142.5 39t-52.5 119zM214 619l68 177l74 -24l-88 -168z" />
<glyph unicode="&#x3ae;" horiz-adv-x="523" d="M450 -288h-85v649q0 62 -16 90.5t-50 28.5q-61 0 -134 -91v-389h-86v539h80v-71q81 86 164 86q127 0 127 -186v-656zM252 619l68 177l74 -24l-88 -168z" />
<glyph unicode="&#x3af;" horiz-adv-x="250" d="M233 68l6 -68q-19 -4 -48 -4q-69 0 -91.5 40t-22.5 124v379h84v-379q0 -52 11 -72.5t37 -20.5q16 0 24 1zM80 619l68 177l74 -24l-88 -168z" />
<glyph unicode="&#x3b0;" horiz-adv-x="493" d="M292 522l83 35q69 -130 69 -282q0 -16 -1 -32q-4 -113 -54.5 -183.5t-150.5 -70.5q-173 0 -173 220q0 12 1 25l2 64q3 47 3 90q0 81 -10 151h84q10 -77 10 -177q0 -30 -1 -63l-3 -70v-19q0 -150 93 -150q104 0 111 181q1 14 1 27q0 135 -64 254zM165 702 q0 -23 -14.5 -37.5t-35.5 -14.5q-23 0 -38 14.5t-15 37.5t15.5 38t37.5 15q21 0 35.5 -15.5t14.5 -37.5zM407 702q0 -23 -15.5 -37.5t-38.5 -14.5q-21 0 -35.5 14.5t-14.5 37.5q0 22 14.5 37.5t35.5 15.5q23 0 38.5 -15.5t15.5 -37.5zM179 641l56 180l75 -22l-77 -171z" />
<glyph unicode="&#x3b1;" horiz-adv-x="529" d="M517 21l-75 -33q-14 35 -37 99l-26 72q-36 -86 -71 -129t-88 -43q-85 0 -129 77t-44 202t44 205.5t131 80.5q59 0 92.5 -40.5t67.5 -128.5q20 60 63 169l73 -32q-34 -80 -94 -246q13 -32 42.5 -118t50.5 -135zM224 57q41 0 75 83q11 27 43 124q-4 13 -13 39l-17 50 q-5 16 -14.5 41.5t-16.5 37.5t-17 25.5t-21 19t-23 5.5q-43 0 -63.5 -61.5t-20.5 -149.5q0 -94 22.5 -154t65.5 -60z" />
<glyph unicode="&#x3b2;" horiz-adv-x="499" d="M427 633q0 -112 -72 -194q52 -24 76.5 -83t24.5 -129q0 -46 -10.5 -86.5t-32.5 -76.5t-63 -57t-96 -21q-33 0 -91 34v-249h-85v805q0 110 47.5 177t138.5 68h6q79 0 118 -52q39 -54 39 -136zM163 580v-482q48 -41 90 -41q58 0 86 48.5t28 122.5q0 63 -25 111t-71 48 q-19 0 -64 -12l-5 64q70 13 73 13q66 58 66 170q0 55 -19 94q-19 37 -60 37h-2q-50 -1 -73.5 -49t-23.5 -124z" />
<glyph unicode="&#x3b3;" horiz-adv-x="409" d="M397 539q-1 -81 -24 -171t-49.5 -156.5t-91.5 -216.5q15 -157 15 -277h-84v40q0 112 -9 236q-24 254 -175 545h100q43 -80 80 -190t56 -216q47 122 70.5 216t25.5 190h86z" />
<glyph unicode="&#x3b4;" horiz-adv-x="428" d="M213 -13q-85 0 -134 65t-49 161q0 85 42 154t109 116q-102 100 -102 185q0 63 36.5 94.5t98.5 31.5q58 0 150 -45l-23 -63q-72 41 -123 41q-55 0 -55 -59q0 -31 22.5 -64.5t81.5 -90.5q63 -65 102 -135t39 -161q0 -112 -53 -171t-142 -59zM323 211q0 106 -96 223 q-114 -94 -114 -221q0 -70 30.5 -114t76.5 -44q44 0 73.5 41t29.5 115z" />
<glyph unicode="&#x3b5;" horiz-adv-x="376" d="M38 148q0 97 81 143q-67 37 -67 122q0 64 46.5 100.5t129.5 36.5q58 0 129 -24l-13 -67q-55 23 -113 23q-44 0 -67.5 -20t-23.5 -55q0 -40 31.5 -67.5t88.5 -28.5l45 -2l1 -55l-51 3h-12q-53 0 -83 -24q-32 -27 -32 -79q0 -48 29.5 -72.5t80.5 -24.5q50 0 110 21l12 -67 q-70 -21 -127 -21q-90 0 -142.5 39t-52.5 119z" />
<glyph unicode="&#x3b6;" horiz-adv-x="345" d="M320 -235l-64 33q47 92 47 137q0 27 -13 39t-46 12q-102 0 -152.5 51.5t-50.5 176.5q0 136 64.5 276.5t155.5 256.5h-206v65h299l18 -53q-101 -108 -173 -246.5t-72 -291.5q0 -95 30 -129.5t95 -34.5q129 0 129 -109q0 -71 -61 -183z" />
<glyph unicode="&#x3b7;" horiz-adv-x="523" d="M449 -288h-85v649q0 62 -16 90.5t-50 28.5q-61 0 -134 -91v-389h-86v539h80v-71q81 86 164 86q127 0 127 -186v-656z" />
<glyph unicode="&#x3b8;" horiz-adv-x="490" d="M437 408q0 -419 -194 -419q-58 0 -98.5 40t-59.5 107.5t-26.5 132.5t-7.5 139q0 81 9 149.5t29.5 129.5t59.5 96t94 35q194 0 194 -410zM245 57q106 0 110 327h-221q2 -136 28 -231.5t83 -95.5zM242 750q-28 0 -49 -26t-33 -71t-18 -95.5t-8 -109.5h220q-2 82 -13.5 147 t-36.5 110t-62 45z" />
<glyph unicode="&#x3b9;" horiz-adv-x="248" d="M232 68l6 -68q-19 -4 -48 -4q-69 0 -91.5 40t-22.5 124v379h84v-379q0 -52 11 -72.5t37 -20.5q16 0 24 1z" />
<glyph unicode="&#x3ba;" horiz-adv-x="432" d="M164 539v-228q15 0 22 -1l144 229h104l-171 -244q80 -30 120 -137l60 -158h-96l-43 128q-23 68 -53 90t-87 25v-243h-85v539h85z" />
<glyph unicode="&#x3bb;" horiz-adv-x="405" d="M321 0l-117 412l-127 -412h-88l183 523l-14 49q-23 82 -61.5 115t-104.5 34l9 72q93 -1 148 -48.5t93 -159.5l170 -585h-91z" />
<glyph unicode="&#x3bd;" horiz-adv-x="411" d="M183 0l-184 539h97l123 -420l75 230q30 93 30 179v11h85q0 -106 -37 -205l-127 -334h-62z" />
<glyph unicode="&#x3be;" horiz-adv-x="338" d="M34 187q0 72 32 135t86 100q-45 17 -72.5 58t-27.5 105q0 102 73 161.5t191 79.5l11 -65q-87 -21 -137 -60.5t-50 -112.5q0 -65 37 -92q26 -18 62 -18q15 0 32 3l41 9l19 -63l-45 -14q-74 -20 -118.5 -79.5t-44.5 -139.5q0 -137 133 -137q59 -2 91 -25.5t32 -80.5 q0 -78 -64 -186l-67 33q47 97 47 138q0 30 -15.5 40t-46.5 10q-92 1 -145.5 52.5t-53.5 148.5z" />
<glyph unicode="&#x3bf;" horiz-adv-x="491" d="M49 264q0 131 51 209.5t158 78.5q197 0 197 -275q0 -134 -50.5 -212t-155.5 -78q-102 0 -151 75t-49 202zM136 268q0 -212 115 -212q117 0 117 219q0 209 -114 209q-118 0 -118 -216z" />
<glyph unicode="&#x3c0;" horiz-adv-x="497" d="M473 68l5 -68q-17 -4 -46 -4q-67 0 -89 40t-22 124v313h-147q0 -210 -5.5 -299t-26.5 -174h-83q22 90 28.5 184t6.5 288q-43 -3 -78 -16l-14 62q45 21 127 21h343v-66h-69v-313q0 -51 10.5 -72t35.5 -21q17 0 24 1z" />
<glyph unicode="&#x3c1;" horiz-adv-x="490" d="M68 -273v587q0 117 49.5 178.5t140.5 61.5q66 0 109.5 -42.5t60.5 -104t17 -139.5q0 -51 -10 -97.5t-32 -89.5t-62.5 -69t-94.5 -26q-41 0 -93 31v-290h-85zM153 313v-215q47 -41 88 -41q58 0 86 60.5t28 147.5q0 42 -4.5 78.5t-15.5 69.5t-32 52.5t-50 19.5 q-48 0 -74 -44.5t-26 -127.5z" />
<glyph unicode="&#x3c2;" horiz-adv-x="371" d="M321 -225l-67 35q46 92 46 137q0 26 -13 39t-46 13q-102 0 -151 47.5t-49 171.5q0 147 82 240t212 120l18 -69q-103 -25 -164.5 -99.5t-61.5 -184.5q0 -93 31.5 -124.5t93.5 -31.5q132 0 132 -111q0 -64 -63 -183z" />
<glyph unicode="&#x3c3;" horiz-adv-x="504" d="M506 472h-130q67 -81 67 -214q0 -48 -11.5 -94.5t-34.5 -87t-62.5 -65.5t-90.5 -25q-99 0 -149.5 79t-50.5 218q0 257 234 257l228 -1v-67zM356 255q0 143 -68 217h-8q-84 0 -116.5 -46.5t-32.5 -140.5q0 -105 30 -167t86 -62q52 0 80.5 62.5t28.5 136.5z" />
<glyph unicode="&#x3c4;" horiz-adv-x="349" d="M366 473h-149v-313q0 -52 11 -72.5t37 -20.5q15 0 24 1l4 -68q-17 -4 -46 -4q-69 0 -92 40t-23 124v313h-19q-76 0 -117 -19l-17 62q44 23 126 23h261v-66z" />
<glyph unicode="&#x3c5;" horiz-adv-x="493" d="M291 522l83 35q69 -130 69 -282q0 -16 -1 -32q-4 -113 -54.5 -183.5t-150.5 -70.5q-173 0 -173 218q0 13 1 27l2 64q3 47 3 90q0 81 -10 151h84q10 -77 10 -177q0 -30 -1 -63l-3 -70v-19q0 -150 93 -150q104 0 111 181q1 14 1 27q0 135 -64 254z" />
<glyph unicode="&#x3c6;" horiz-adv-x="578" d="M241 -264v295q-109 12 -156 81t-47 167q0 90 38 161t123 102l29 -62q-106 -43 -106 -198t119 -180v274q0 84 34 129.5t98 45.5q78 0 122 -69.5t44 -174.5q0 -112 -50.5 -187.5t-163.5 -88.5v-295h-84zM325 374v-273q130 22 130 199q0 84 -25 133t-58 49q-47 0 -47 -108z " />
<glyph unicode="&#x3c7;" horiz-adv-x="336" d="M70 539l104 -279l87 279h94l-141 -384l153 -410h-94l-118 315l-103 -326l-83 21l148 408l-140 376h93z" />
<glyph unicode="&#x3c8;" horiz-adv-x="611" d="M346 -131h-86v123q-194 24 -194 246v60q0 130 -24 241h83q26 -127 26 -240v-55q0 -156 109 -179v576h86v-579q136 20 136 203q0 131 -79 251l73 44q91 -136 91 -289q0 -261 -221 -280v-122z" />
<glyph unicode="&#x3c9;" horiz-adv-x="686" d="M501 524l79 30q56 -130 56 -263q0 -77 -18 -143.5t-60.5 -112.5t-102.5 -46q-80 0 -117 67q-44 -67 -118 -67q-85 0 -126 63.5t-41 172.5q0 150 52 329l80 -27q-48 -175 -48 -298q0 -169 84 -169q35 0 58.5 56t23.5 137v177h82v-201q0 -169 72 -169q45 0 68.5 69.5 t23.5 156.5q0 67 -10.5 118.5t-37.5 119.5z" />
<glyph unicode="&#x3ca;" horiz-adv-x="250" d="M233 68l6 -68q-19 -4 -48 -4q-69 0 -91.5 40t-22.5 124v379h84v-379q0 -52 11 -72.5t37 -20.5q16 0 24 1zM79 700q0 -23 -14.5 -38t-35.5 -15q-24 0 -39 14.5t-15 38.5q0 25 15 40t39 15q21 0 35.5 -15.5t14.5 -39.5zM274 700q0 -24 -15 -38.5t-39 -14.5 q-21 0 -35.5 14.5t-14.5 38.5t14 39.5t36 15.5q23 0 38.5 -15.5t15.5 -39.5z" />
<glyph unicode="&#x3cb;" horiz-adv-x="493" d="M292 522l83 35q69 -130 69 -282q0 -16 -1 -32q-4 -113 -54.5 -183.5t-150.5 -70.5q-173 0 -173 220q0 12 1 25l2 64q3 47 3 90q0 81 -10 151h84q10 -77 10 -177q0 -30 -1 -63l-3 -70v-19q0 -150 93 -150q104 0 111 181q1 14 1 27q0 135 -64 254zM203 700q0 -23 -14.5 -38 t-35.5 -15q-24 0 -39 14.5t-15 38.5q0 25 15 40t39 15q21 0 35.5 -15.5t14.5 -39.5zM398 700q0 -24 -15 -38.5t-39 -14.5q-21 0 -35.5 14.5t-14.5 38.5t14 39.5t36 15.5q23 0 38.5 -15.5t15.5 -39.5z" />
<glyph unicode="&#x3cc;" horiz-adv-x="491" d="M49 264q0 131 51 209.5t158 78.5q197 0 197 -275q0 -134 -50.5 -212t-155.5 -78q-102 0 -151 75t-49 202zM136 268q0 -212 115 -212q117 0 117 219q0 209 -114 209q-118 0 -118 -216zM247 619l68 177l74 -24l-88 -168z" />
<glyph unicode="&#x3cd;" horiz-adv-x="493" d="M292 522l83 35q69 -130 69 -282q0 -16 -1 -32q-4 -113 -54.5 -183.5t-150.5 -70.5q-173 0 -173 220q0 12 1 25l2 64q3 47 3 90q0 81 -10 151h84q10 -77 10 -177q0 -30 -1 -63l-3 -70v-19q0 -150 93 -150q104 0 111 181q1 14 1 27q0 135 -64 254zM223 619l68 177l74 -24 l-88 -168z" />
<glyph unicode="&#x3ce;" horiz-adv-x="693" d="M506 524l79 30q56 -130 56 -263q0 -77 -18 -143.5t-60.5 -112.5t-102.5 -46q-80 0 -117 67q-44 -67 -118 -67q-85 0 -126 63.5t-41 172.5q0 150 52 329l80 -27q-48 -175 -48 -298q0 -169 84 -169q35 0 58.5 56t23.5 137v177h82v-201q0 -169 72 -169q45 0 68.5 69.5 t23.5 156.5q0 67 -10.5 118.5t-37.5 119.5zM346 619l68 177l74 -24l-88 -168z" />
<glyph unicode="&#x400;" horiz-adv-x="497" d="M170 947l77 41l94 -156l-56 -27zM469 0h-376v739h358v-71h-273v-248h246v-70h-246v-279h291v-71z" />
<glyph unicode="&#x401;" horiz-adv-x="497" d="M227 863q0 -24 -16 -39t-38 -15q-25 0 -41 15t-16 39q0 25 16 40.5t41 15.5q23 0 38.5 -16t15.5 -40zM427 863q0 -24 -15.5 -39t-40.5 -15q-23 0 -38 15t-15 39t15 40t38 16q25 0 40.5 -16t15.5 -40zM469 0h-376v739h358v-71h-273v-248h246v-70h-246v-279h291v-71z" />
<glyph unicode="&#x402;" horiz-adv-x="552" d="M-5 739h372v-71h-179v-181q69 33 132 33q101 0 154 -67t53 -187q0 -117 -61.5 -189.5t-186.5 -88.5l-12 67q170 26 170 210q0 85 -32 134.5t-91 49.5q-65 0 -126 -32v-417h-84v668h-109v71z" />
<glyph unicode="&#x403;" horiz-adv-x="434" d="M200 828l93 161l67 -39l-110 -147zM93 739h361v-71h-276v-668h-85v739z" />
<glyph unicode="&#x404;" d="M446 89l10 -73q-67 -28 -143 -28q-271 0 -271 376q0 388 277 388q69 0 136 -24l-15 -72q-13 7 -49 15.5t-71 8.5q-176 0 -187 -267h279v-64h-280q8 -289 183 -289q66 0 131 29z" />
<glyph unicode="&#x405;" horiz-adv-x="450" d="M393 717l-23 -70q-59 32 -128 32q-46 0 -77 -23.5t-31 -68.5q0 -35 21.5 -69.5t52.5 -61.5l70 -59q37 -33 68.5 -64t53 -75.5t21.5 -93.5q0 -82 -57 -128.5t-148 -46.5q-109 0 -192 48l28 80q76 -56 165 -56q52 0 83 27t31 73q0 37 -21.5 72t-53.5 63l-68 60 q-38 32 -69.5 62t-53 72.5t-21.5 89.5q0 81 55.5 126.5t137.5 45.5q73 0 156 -35z" />
<glyph unicode="&#x406;" horiz-adv-x="270" d="M177 0h-84v739h84v-739z" />
<glyph unicode="&#x407;" horiz-adv-x="270" d="M90 863q0 -24 -16 -39t-38 -15q-25 0 -40.5 15t-15.5 39q0 25 15.5 40.5t40.5 15.5q23 0 38.5 -16t15.5 -40zM291 863q0 -24 -16 -39t-41 -15q-23 0 -38 15t-15 39t15 40t38 16q25 0 41 -16t16 -40zM177 0h-84v739h84v-739z" />
<glyph unicode="&#x408;" horiz-adv-x="321" d="M237 739v-452q0 -69 -11 -119.5t-28 -81.5t-48.5 -54t-60.5 -34.5t-77 -25.5l-16 73q34 11 55.5 21.5t43 28.5t32.5 43t18 62.5t7 89.5v449h85z" />
<glyph unicode="&#x409;" horiz-adv-x="807" d="M487 739v-294h78q103 0 159 -58t56 -158q0 -104 -59.5 -166.5t-167.5 -62.5h-151v668h-167l-18 -288q-11 -178 -52 -265.5t-146 -142.5l-28 69q73 40 104.5 117.5t41.5 233.5l22 347l2 -1v1h326zM689 227q0 149 -136 149h-66v-305h55q77 0 112 42.5t35 113.5z" />
<glyph unicode="&#x40a;" horiz-adv-x="832" d="M806 224q0 -103 -59 -163.5t-167 -60.5h-151v365h-251v-365h-86v739h86v-303h251v303h85v-303h77q104 0 159.5 -56t55.5 -156zM715 223q0 142 -135 142h-66v-294h55q146 0 146 152z" />
<glyph unicode="&#x40b;" horiz-adv-x="618" d="M399 668h-191v-240q83 75 182 75q77 0 117 -43t40 -143v-317h-86v308q0 62 -21.5 91t-69.5 29q-80 0 -162 -81v-347h-86v668h-142v71h419v-71z" />
<glyph unicode="&#x40c;" horiz-adv-x="558" d="M178 739v-322q19 0 28 -1l211 323h111l-239 -336q60 -17 102 -61t71 -127l79 -215h-103l-61 184q-17 51 -36 83t-44 49t-52 23t-67 7v-346h-85v739h85zM229 828l93 161l67 -39l-111 -147z" />
<glyph unicode="&#x40d;" horiz-adv-x="655" d="M232 947l76 41l93 -156l-55 -27zM159 0h-66v739h85v-562l318 562h66v-739h-85v566z" />
<glyph unicode="&#x40e;" horiz-adv-x="450" d="M-21 739h101l148 -387l149 387h95l-300 -739h-94l106 258zM310 946l55 -6q-8 -68 -44.5 -106.5t-96.5 -38.5t-96 38.5t-42 106.5l53 6q11 -45 30.5 -68.5t54.5 -23.5q66 0 86 92z" />
<glyph unicode="&#x40f;" horiz-adv-x="641" d="M464 739h85v-739h-189v-150h-73v150h-195v739h85v-668h287v668z" />
<glyph unicode="&#x410;" horiz-adv-x="530" d="M435 0l-63 215h-224l-61 -215h-86l211 739h97l220 -739h-94zM258 661l-92 -377h187z" />
<glyph unicode="&#x411;" horiz-adv-x="505" d="M478 226q0 -104 -60 -165t-171 -61h-154v739h346v-71h-261v-227h80q107 0 163.5 -57.5t56.5 -157.5zM389 224q0 148 -141 148h-70v-303h58q79 0 116 42.5t37 112.5z" />
<glyph unicode="&#x412;" horiz-adv-x="523" d="M497 210q0 -118 -63 -164t-182 -46h-159v739h162q218 0 218 -185q0 -113 -86 -158q110 -50 110 -186zM406 211q0 143 -158 143h-70v-284h79q75 0 112 31t37 110zM382 549q0 120 -129 120h-75v-249h60q144 0 144 129z" />
<glyph unicode="&#x413;" horiz-adv-x="434" d="M92 739h361v-71h-276v-668h-85v739z" />
<glyph unicode="&#x414;" horiz-adv-x="608" d="M523 0h-460v-150h-72v216h40q50 36 74.5 109.5t34.5 216.5l22 347h357v-673h77v-216h-73v150zM433 670h-195l-16 -281q-7 -132 -31 -204.5t-66 -118.5h308v604z" />
<glyph unicode="&#x415;" horiz-adv-x="498" d="M468 0h-376v739h358v-71h-273v-248h246v-70h-246v-279h291v-71z" />
<glyph unicode="&#x416;" horiz-adv-x="670" d="M110 739l135 -326q16 2 46 4v322h84v-322q21 -1 54 -5l142 327h98l-175 -349q53 -30 81 -110l93 -280h-92l-79 254q-18 58 -44.5 75t-77.5 18v-347h-84v347q-49 -1 -75.5 -18.5t-43.5 -74.5l-81 -254h-87l92 280q27 82 82 112l-168 347h100z" />
<glyph unicode="&#x417;" horiz-adv-x="430" d="M395 577q0 -60 -31.5 -105.5t-80.5 -72.5q65 -23 98 -73t33 -117q0 -103 -66 -162t-175 -61h-14q-67 0 -146 25l18 72q73 -26 134 -26q70 0 114.5 39.5t44.5 110.5t-49.5 108.5t-144.5 37.5h-67l-2 69l74 1q72 1 121 40t49 98q0 57 -36.5 88t-95.5 31q-66 0 -131 -18 l-12 71q79 18 163 18q92 0 147 -46t55 -128z" />
<glyph unicode="&#x418;" horiz-adv-x="655" d="M159 0h-66v739h85v-562l318 562h66v-739h-85v566z" />
<glyph unicode="&#x419;" horiz-adv-x="655" d="M419 946l54 -6q-8 -68 -44.5 -106.5t-96.5 -38.5q-59 0 -95.5 38.5t-44.5 106.5l56 6q20 -92 84 -92q65 0 87 92zM159 0h-66v739h85v-562l318 562h66v-739h-85v566z" />
<glyph unicode="&#x41a;" horiz-adv-x="537" d="M178 739v-322q19 0 28 -1l211 323h111l-239 -336q60 -17 102 -61t71 -127l79 -215h-103l-61 184q-17 51 -36 83t-44 49t-52 23t-67 7v-346h-85v739h85z" />
<glyph unicode="&#x41b;" horiz-adv-x="616" d="M524 0h-85v670h-204l-16 -282q-12 -180 -56.5 -273t-143.5 -143l-28 69q73 40 104.5 117.5t41.5 233.5l22 347l2 -1v1h363v-739z" />
<glyph unicode="&#x41c;" horiz-adv-x="753" d="M693 0h-87l-28 565l-181 -565h-49l-182 565l-29 -565h-76l42 739h83l190 -584l194 584h80z" />
<glyph unicode="&#x41d;" horiz-adv-x="646" d="M554 0h-86v353h-289v-353h-86v739h86v-315h289v315h86v-739z" />
<glyph unicode="&#x41e;" horiz-adv-x="624" d="M580 384q0 -397 -276 -397q-260 0 -260 368q0 79 13.5 146t44 125.5t86 92t131.5 33.5q73 0 125.5 -30t81 -83.5t41.5 -116.5t13 -138zM490 380q0 301 -176 301q-181 0 -181 -322q0 -301 175 -301q182 0 182 322z" />
<glyph unicode="&#x41f;" horiz-adv-x="643" d="M550 0h-85v668h-287v-668h-85v739h457v-739z" />
<glyph unicode="&#x420;" horiz-adv-x="512" d="M484 511q0 -114 -58.5 -176.5t-167.5 -62.5q-53 0 -81 9v-281h-86v739h158q235 0 235 -228zM392 503q0 82 -35 123.5t-117 41.5h-63v-317q31 -9 71 -9q77 0 110.5 40.5t33.5 120.5z" />
<glyph unicode="&#x421;" d="M446 89l10 -73q-67 -28 -143 -28q-271 0 -271 376q0 388 277 388q69 0 136 -24l-15 -72q-13 7 -49 15.5t-71 8.5q-188 0 -188 -306q0 -314 183 -314q66 0 131 29z" />
<glyph unicode="&#x422;" horiz-adv-x="450" d="M468 667h-202v-667h-85v667h-199v72h486v-72z" />
<glyph unicode="&#x423;" horiz-adv-x="462" d="M-16 739h101l148 -387l149 387h95l-300 -739h-94l106 258z" />
<glyph unicode="&#x424;" horiz-adv-x="651" d="M369 -82h-84v132q-68 6 -117.5 34.5t-76 73t-38.5 94t-12 107.5q0 60 12.5 113t40 100t76.5 78.5t115 39.5v138h84v-137q65 -7 113 -35t75 -71.5t39.5 -94t12.5 -108.5q0 -63 -12 -116t-38.5 -100t-74.5 -77t-115 -38v-133zM125 361q0 -219 163 -242v499 q-163 -24 -163 -257zM526 378q0 216 -160 240v-498q160 27 160 258z" />
<glyph unicode="&#x425;" horiz-adv-x="492" d="M396 0l-154 315l-151 -315h-96l193 385l-179 354h103l140 -288l134 288h96l-181 -354l198 -385h-103z" />
<glyph unicode="&#x426;" horiz-adv-x="651" d="M464 739h85v-668h78v-221h-72v150h-463v739h85v-668h287v668z" />
<glyph unicode="&#x427;" horiz-adv-x="581" d="M54 739h85v-291q0 -82 33.5 -119t87.5 -37q62 0 144 61v386h85v-739h-85v272q-5 -2 -22 -11l-22 -12q-6 -3 -20.5 -9.5t-23 -9t-21.5 -6t-25.5 -5t-25.5 -1.5q-190 0 -190 219v302z" />
<glyph unicode="&#x428;" horiz-adv-x="834" d="M658 739h85v-739h-651v739h85v-668h199v668h84v-668h198v668z" />
<glyph unicode="&#x429;" horiz-adv-x="849" d="M659 739h85v-668h84v-221h-73v150h-662v739h85v-668h199v668h84v-668h198v668z" />
<glyph unicode="&#x42a;" horiz-adv-x="578" d="M-6 668v71h268v-294h78q103 0 159 -58t56 -158q0 -104 -59.5 -166.5t-166.5 -62.5h-152v668h-183zM464 227q0 149 -135 149h-67v-305h55q77 0 112 42.5t35 113.5z" />
<glyph unicode="&#x42b;" horiz-adv-x="703" d="M611 0h-85v739h85v-739zM463 229q0 -105 -58 -167t-164 -62h-149v739h85v-294h75q102 0 156.5 -58t54.5 -158zM373 227q0 149 -131 149h-65v-305h54q74 0 108 42.5t34 113.5z" />
<glyph unicode="&#x42c;" horiz-adv-x="497" d="M470 229q0 -104 -59.5 -166.5t-166.5 -62.5h-152v739h85v-294h78q103 0 159 -58t56 -158zM379 227q0 149 -135 149h-67v-305h55q77 0 112 42.5t35 113.5z" />
<glyph unicode="&#x42d;" horiz-adv-x="472" d="M33 639l-17 72q74 41 160 41q61 0 108 -25t74.5 -64t45.5 -93t24 -106t6 -110q0 -53 -9 -104t-29.5 -99t-50 -84t-74.5 -57.5t-99 -21.5q-52 0 -81 8t-76 31l17 74q66 -41 140 -41q61 0 101 45.5t55 108t15 137.5v1h-282v66h279q-4 52 -14 95.5t-29 83t-51.5 61.5 t-76.5 22q-64 0 -136 -41z" />
<glyph unicode="&#x42e;" horiz-adv-x="809" d="M177 0h-85v739h85v-331h106q4 66 19.5 124.5t43.5 109.5t74.5 80.5t107.5 29.5q52 0 93.5 -22t68 -58t44.5 -84.5t25.5 -99t7.5 -104.5q0 -61 -7.5 -115.5t-25.5 -107t-45.5 -90.5t-71 -61t-99.5 -23q-64 0 -111.5 30.5t-73.5 82.5t-38 109.5t-14 123.5h-104v-333z M677 380q0 55 -7 104.5t-23 95.5t-47 73t-74 27q-44 0 -76.5 -30t-49 -80t-23.5 -102t-7 -109q0 -58 7.5 -108.5t24 -95t47 -70.5t71.5 -26q42 0 73.5 27t49 73.5t26 101.5t8.5 119z" />
<glyph unicode="&#x42f;" horiz-adv-x="536" d="M297 739h147v-739h-86v306h-25q-41 0 -73 5l-132 -311h-101l156 333q-127 53 -127 201q0 98 60.5 151.5t180.5 53.5zM358 376v291l-61 1h-6q-145 0 -145 -132q0 -88 60 -126q55 -34 138 -34h14z" />
<glyph unicode="&#x430;" horiz-adv-x="453" d="M385 0h-71l-9 52q-2 -1 -17.5 -12.5t-21 -15t-21 -12.5t-25.5 -12.5t-25.5 -7t-30.5 -3.5q-58 0 -89 41t-31 103q0 57 34.5 92.5t86.5 49t126 15.5v102q0 52 -18 73t-55 21q-53 0 -130 -38l-19 65q102 39 161 39q78 0 111.5 -40.5t33.5 -117.5v-242q0 -47 10 -152z M292 102v135q-27 -1 -47 -2.5t-44.5 -7.5t-40 -15.5t-26.5 -27.5t-11 -42q0 -41 19 -65.5t52 -24.5q32 0 98 50z" />
<glyph unicode="&#x431;" horiz-adv-x="477" d="M317 693q-85 0 -125.5 -61t-49.5 -193q58 54 131 54q79 0 121.5 -62t42.5 -176q0 -123 -50.5 -196t-143.5 -73q-57 0 -96 27t-59 77.5t-28 108t-8 132.5q0 213 61 322.5t201 109.5q59 0 90 7v-69q-32 -8 -87 -8zM253 426q-30 0 -61.5 -17.5t-52.5 -44.5v-35 q0 -56 3.5 -98.5t14 -86t32.5 -67t56 -23.5q51 0 77.5 55t26.5 144q0 173 -96 173z" />
<glyph unicode="&#x432;" horiz-adv-x="442" d="M405 157q0 -87 -50 -123q-49 -35 -142 -35h-5l-134 1v539l129 2h3q175 0 175 -138q0 -89 -76 -122l40 -5q60 -39 60 -119zM324 156q0 50 -31.5 72.5t-71.5 22.5h-68v-188h61q110 0 110 93zM301 394q0 35 -22.5 58.5t-71.5 23.5h-57v-169h48q103 0 103 87z" />
<glyph unicode="&#x433;" horiz-adv-x="373" d="M78 539h289v-72h-204v-467h-85v539z" />
<glyph unicode="&#x434;" horiz-adv-x="506" d="M422 539v-473h67v-206h-73v140h-344v-140h-72v206h49q27 22 36.5 64t14.5 137l12 272h310zM180 265q-9 -144 -46 -199h203v405h-148z" />
<glyph unicode="&#x435;" horiz-adv-x="460" d="M415 269h-285q1 -112 30.5 -163t98.5 -51q54 0 129 39l20 -65q-82 -42 -156 -42q-106 0 -152.5 72.5t-46.5 205.5q0 287 195 287q171 0 171 -227q0 -33 -4 -56zM244 491q-101 0 -113 -166h208v7q0 78 -20 118q-21 41 -75 41z" />
<glyph unicode="&#x436;" horiz-adv-x="559" d="M109 539l94 -230q21 4 35 5v225h83v-225q22 -2 39 -6l100 231h93l-134 -256q40 -27 64 -89l68 -194h-86l-56 169q-14 42 -34 59t-54 20v-248h-83v248q-35 -3 -55 -19.5t-32 -59.5l-57 -169h-83l67 194q22 61 62 89l-128 256h97z" />
<glyph unicode="&#x437;" horiz-adv-x="376" d="M350 156q0 -81 -52 -124t-138 -43q-73 0 -145 26l19 69q61 -28 125 -28q47 0 75.5 26.5t28.5 72.5q0 52 -33 79q-31 24 -82 24h-12l-51 -2l-1 61l43 1q56 2 84.5 27.5t28.5 64.5q0 33 -20.5 52.5t-58.5 19.5q-48 0 -107 -29l-25 62q75 36 147 36q68 0 111 -34t43 -96 q0 -47 -19 -74t-53 -46q92 -39 92 -145z" />
<glyph unicode="&#x438;" horiz-adv-x="515" d="M144 0h-66v539h80v-382l212 382h67v-539h-80v388z" />
<glyph unicode="&#x439;" horiz-adv-x="515" d="M144 0h-66v539h80v-382l212 382h67v-539h-80v388zM348 759l62 -6q-7 -67 -45 -103t-100 -36q-59 0 -95 36t-42 103l61 6q9 -45 27 -67.5t52 -22.5q64 0 80 90z" />
<glyph unicode="&#x43a;" horiz-adv-x="440" d="M163 539v-228q15 0 22 -1l144 229h104l-171 -244q80 -30 120 -137l60 -158h-96l-43 128q-23 68 -53 90t-87 25v-243h-85v539h85z" />
<glyph unicode="&#x43b;" horiz-adv-x="493" d="M417 0h-84v471h-143l-20 -250q-8 -95 -42 -151.5t-107 -84.5l-33 63q49 21 73.5 63.5t30.5 119.5l23 308h302v-539z" />
<glyph unicode="&#x43c;" horiz-adv-x="620" d="M565 0h-85l-19 392l-126 -392h-50l-130 392l-22 -392h-78l35 539h79l143 -413l141 413h79z" />
<glyph unicode="&#x43d;" horiz-adv-x="525" d="M446 0h-85v250h-197v-250h-85v539h85v-220h197v220h85v-539z" />
<glyph unicode="&#x43e;" horiz-adv-x="510" d="M52 264q0 131 51 209.5t158 78.5q197 0 197 -275q0 -134 -50.5 -212t-155.5 -78q-102 0 -151 75t-49 202zM139 268q0 -212 115 -212q117 0 117 219q0 209 -114 209q-118 0 -118 -216z" />
<glyph unicode="&#x43f;" horiz-adv-x="525" d="M446 0h-84v471h-199v-471h-84v539h367v-539z" />
<glyph unicode="&#x440;" horiz-adv-x="511" d="M81 -272v793q94 33 177 33q201 0 201 -280q0 -127 -50.5 -207.5t-158.5 -80.5q-40 0 -84 13v-271h-85zM166 469v-391q35 -21 85 -21q120 0 120 214q0 213 -117 213q-47 0 -88 -15z" />
<glyph unicode="&#x441;" horiz-adv-x="401" d="M361 86l18 -66q-56 -30 -133 -30q-95 0 -144.5 70.5t-49.5 206.5q0 141 53 211.5t152 70.5q71 0 120 -24l-18 -71q-46 27 -98 27q-121 0 -121 -204q0 -105 32 -161.5t90 -56.5q46 0 99 27z" />
<glyph unicode="&#x442;" horiz-adv-x="369" d="M381 469h-154v-469h-84v469h-155v70h393v-70z" />
<glyph unicode="&#x443;" horiz-adv-x="433" d="M430 539l-172 -585q-29 -99 -75.5 -147.5t-128.5 -81.5l-31 69q62 28 97.5 66.5t56.5 106.5l16 52l-32 2l-156 518h93l123 -459l121 459h88z" />
<glyph unicode="&#x444;" horiz-adv-x="706" d="M395 812v-265q40 7 72 7q55 0 95.5 -26t62 -70t31.5 -91.5t10 -98.5t-10 -97.5t-32 -89.5t-63 -69t-96 -26q-34 0 -70 22v-281h-85v266q-40 -7 -71 -7q-55 0 -95.5 26t-62 69.5t-31.5 91t-10 98.5t10 98t32 90t63 69t96 26q32 0 69 -22v280h85zM395 466v-379 q32 -30 70 -30q56 0 83.5 60.5t27.5 147.5q0 36 -5.5 71t-17.5 70t-36.5 56.5t-58.5 21.5q-29 0 -63 -18zM310 73v380q-32 30 -70 30q-56 0 -83.5 -61t-27.5 -147q0 -36 5.5 -71.5t18 -70t37 -56t58.5 -21.5q31 0 62 17z" />
<glyph unicode="&#x445;" horiz-adv-x="428" d="M117 539l115 -208l87 208h91l-129 -271l-14 -1l148 -267h-98l-115 207l-86 -208h-91l128 271h14l-148 269h98z" />
<glyph unicode="&#x446;" horiz-adv-x="534" d="M365 539h85v-468h68v-221h-72v150h-367v539h84v-470h202v470z" />
<glyph unicode="&#x447;" horiz-adv-x="496" d="M332 0v240q-71 -58 -140 -58q-68 0 -104.5 38.5t-36.5 140.5v178h85v-172q0 -64 18.5 -87.5t61.5 -23.5q53 0 116 54v229h85v-539h-85z" />
<glyph unicode="&#x448;" horiz-adv-x="725" d="M567 539h85v-539h-578v539h84v-471h162v471h85v-471h162v471z" />
<glyph unicode="&#x449;" horiz-adv-x="736" d="M567 539h85v-468h72v-221h-74v150h-576v539h84v-471h162v471h85v-471h162v471z" />
<glyph unicode="&#x44a;" horiz-adv-x="458" d="M-7 472v67h219v-192q22 3 41 3q105 0 153 -48.5t48 -125.5q0 -32 -10 -61.5t-32.5 -57.5t-66 -44.5t-102.5 -16.5q-63 0 -116 6v470h-134zM251 283q-11 0 -39 -2v-218q14 -1 38 -1q61 0 88 32.5t27 81.5q0 107 -114 107z" />
<glyph unicode="&#x44b;" horiz-adv-x="610" d="M164 539v-191q26 2 37 2q101 0 146.5 -48t45.5 -126q0 -32 -10 -61.5t-31.5 -57.5t-62.5 -44.5t-97 -16.5q-63 0 -113 6v537h85zM535 0h-86v539h86v-539zM198 283q-10 0 -34 -2v-218q13 -1 34 -1q57 0 82.5 33t25.5 81q0 107 -108 107z" />
<glyph unicode="&#x44c;" horiz-adv-x="418" d="M164 539v-192q22 3 41 3q105 0 153 -48.5t48 -125.5q0 -32 -10 -61.5t-32.5 -57.5t-66 -44.5t-102.5 -16.5q-63 0 -116 6v537h85zM203 283q-11 0 -39 -2v-218q14 -1 38 -1q61 0 88 32.5t27 81.5q0 107 -114 107z" />
<glyph unicode="&#x44d;" horiz-adv-x="391" d="M48 455l-18 68q57 31 125 31q193 0 193 -286q0 -138 -54 -209.5t-149 -71.5q-73 0 -118 26l16 72q47 -29 104 -29q108 0 111 191h-184v67h182q-9 170 -104 170q-58 0 -104 -29z" />
<glyph unicode="&#x44e;" horiz-adv-x="670" d="M162 0h-84v539h84v-230h85q8 110 56 177.5t135 67.5q96 0 141 -79t45 -197q0 -128 -49 -210t-143 -82q-88 0 -135 70t-52 184h-83v-240zM332 268q0 -95 26 -153.5t76 -58.5q35 0 58.5 31.5t33.5 79t10 108.5q0 94 -24 151.5t-75 57.5q-53 0 -79 -59t-26 -157z" />
<glyph unicode="&#x44f;" horiz-adv-x="452" d="M46 369q0 27 8 53.5t27.5 54.5t60 45t97.5 17h136v-539h-84v204q-51 0 -81 6l-80 -210h-93l103 230q-94 40 -94 139zM132 374q0 -55 38 -79q36 -23 114 -23h7v199h-57q-54 0 -78 -27t-24 -70z" />
<glyph unicode="&#x450;" horiz-adv-x="460" d="M415 269h-285q1 -112 30.5 -163t98.5 -51q54 0 129 39l20 -65q-82 -42 -156 -42q-106 0 -152.5 72.5t-46.5 205.5q0 287 195 287q171 0 171 -227q0 -33 -4 -56zM244 491q-101 0 -113 -166h208v7q0 78 -20 118q-21 41 -75 41zM129 752l76 41l94 -156l-56 -27z" />
<glyph unicode="&#x451;" horiz-adv-x="460" d="M415 269h-285q1 -112 30.5 -163t98.5 -51q54 0 129 39l20 -65q-82 -42 -156 -42q-106 0 -152.5 72.5t-46.5 205.5q0 287 195 287q171 0 171 -227q0 -33 -4 -56zM244 491q-101 0 -113 -166h208v7q0 78 -20 118q-21 41 -75 41zM199 700q0 -23 -14.5 -38t-35.5 -15 q-24 0 -39 14.5t-15 38.5q0 25 15 40t39 15q21 0 35.5 -15.5t14.5 -39.5zM394 700q0 -24 -15 -38.5t-39 -14.5q-21 0 -35.5 14.5t-14.5 38.5t14 39.5t36 15.5q23 0 38.5 -15.5t15.5 -39.5z" />
<glyph unicode="&#x452;" horiz-adv-x="514" d="M302 644h-137v-162q94 72 154 72q32 0 55.5 -10.5t43 -37t29 -78.5t9.5 -129q0 -124 -26 -221.5t-64.5 -160.5t-103.5 -135l-54 47q40 52 64 89.5t49.5 94t37 125t11.5 155.5q0 105 -17 145.5t-66 40.5q-47 0 -122 -71v-408h-85v644h-51v60h51v109h85v-109h137v-60z" />
<glyph unicode="&#x453;" horiz-adv-x="373" d="M78 539h289v-72h-204v-467h-85v539zM183 632l93 162l67 -38l-110 -149z" />
<glyph unicode="&#x454;" horiz-adv-x="393" d="M344 85l17 -69q-58 -29 -124 -29q-193 0 -193 284q0 139 53.5 211t149.5 72q69 0 117 -26l-16 -72q-44 29 -104 29q-103 0 -111 -175h184v-66h-184q4 -94 28.5 -141t76.5 -47q60 0 106 29z" />
<glyph unicode="&#x455;" horiz-adv-x="381" d="M208 555q50 0 119 -23l-16 -69q-57 24 -94 24t-58.5 -19t-21.5 -53q0 -31 21.5 -56t52.5 -45l62 -42q31 -22 52.5 -58t21.5 -83q0 -72 -45 -108.5t-117 -36.5q-79 0 -146 31l21 71q60 -35 117 -35q40 0 61.5 20.5t21.5 55.5q0 32 -21.5 58.5t-52.5 46.5l-62 43 q-31 22 -52.5 56t-21.5 77q0 69 45 107t113 38z" />
<glyph unicode="&#x456;" horiz-adv-x="242" d="M164 0h-86v539h86v-539zM176 713q0 -25 -16 -41t-39 -16q-24 0 -39 16t-15 41t15.5 41.5t38.5 16.5t39 -16.5t16 -41.5z" />
<glyph unicode="&#x457;" horiz-adv-x="242" d="M164 0h-86v539h86v-539zM73 700q0 -23 -14.5 -38t-35.5 -15q-24 0 -39 14.5t-15 38.5q0 25 15 40t39 15q21 0 35.5 -15.5t14.5 -39.5zM268 700q0 -24 -15 -38.5t-39 -14.5q-21 0 -35.5 14.5t-14.5 38.5t14 39.5t36 15.5q23 0 38.5 -15.5t15.5 -39.5z" />
<glyph unicode="&#x458;" horiz-adv-x="242" d="M79 539h85v-524q0 -117 -39 -169.5t-152 -77.5l-16 69q46 12 70.5 27.5t38 50.5t13.5 95v529zM177 713q0 -25 -16 -41t-39 -16q-24 0 -39 16t-15 41t15.5 41.5t38.5 16.5t39 -16.5t16 -41.5z" />
<glyph unicode="&#x459;" horiz-adv-x="648" d="M404 539v-192q21 3 39 3q103 0 150 -48.5t47 -125.5q0 -32 -10 -61.5t-32 -57.5t-64 -44.5t-100 -16.5q-62 0 -115 6v469h-131l-19 -253q-7 -93 -43 -148.5t-111 -81.5l-23 68q49 19 70 58.5t27 118.5l23 306h292zM441 283q-9 0 -37 -2v-218q14 -1 36 -1q59 0 85.5 33 t26.5 81q0 107 -111 107z" />
<glyph unicode="&#x45a;" horiz-adv-x="661" d="M416 539v-208q28 2 40 2q102 0 149 -45.5t47 -120.5q0 -30 -10 -58t-32 -55t-64.5 -43t-100.5 -16q-15 0 -57 3l-58 3v259h-166v-260h-86v539h86v-209h166v209h86zM453 268q-5 0 -17.5 -0.5t-19.5 -0.5v-207q14 -1 37 -1q58 0 83.5 31t25.5 77q0 48 -24.5 74.5 t-84.5 26.5z" />
<glyph unicode="&#x45b;" horiz-adv-x="529" d="M452 0h-85v368q0 109 -68 109q-56 0 -133 -70v-407h-85v813h85l-3 -334q90 73 167 73q122 0 122 -170v-382zM264 905h-273v60h273v-60z" />
<glyph unicode="&#x45c;" horiz-adv-x="440" d="M163 539v-228q15 0 22 -1l144 229h104l-171 -244q80 -30 120 -137l60 -158h-96l-43 128q-23 68 -53 90t-87 25v-243h-85v539h85zM211 632l93 162l67 -38l-110 -149z" />
<glyph unicode="&#x45d;" horiz-adv-x="515" d="M144 0h-66v539h80v-382l212 382h67v-539h-80v388zM164 752l76 41l94 -156l-56 -27z" />
<glyph unicode="&#x45e;" horiz-adv-x="433" d="M430 539l-172 -585q-29 -99 -75.5 -147.5t-128.5 -81.5l-31 69q62 28 97.5 66.5t56.5 106.5l16 52l-32 2l-156 518h93l123 -459l121 459h88zM305 759l62 -6q-7 -67 -45 -103t-100 -36q-59 0 -95 36t-42 103l61 6q9 -45 27 -67.5t52 -22.5q64 0 80 90z" />
<glyph unicode="&#x45f;" horiz-adv-x="528" d="M365 539h85v-539h-148v-150h-73v150h-150v539h84v-470h202v470z" />
<glyph unicode="&#x490;" horiz-adv-x="434" d="M93 739h286v133h74v-133h1v-71h-276v-668h-85v739z" />
<glyph unicode="&#x491;" horiz-adv-x="372" d="M79 539h212v142h76v-142h1v-72h-204v-467h-85v539z" />
<glyph unicode="&#x492;" horiz-adv-x="459" d="M118 739h361v-71h-276v-262h167v-70h-167v-336h-85v336h-113v70h113v333z" />
<glyph unicode="&#x493;" horiz-adv-x="372" d="M79 539h289v-72h-204v-163h107v-71h-107v-233h-85v233h-71v71h71v235z" />
<glyph unicode="&#x496;" horiz-adv-x="681" d="M376 739v-322q21 -1 54 -5l142 327h98l-175 -349q53 -30 81 -110l69 -209h65v-221h-73v150h-61v3l-78 251q-18 58 -44.5 75t-77.5 18v-347h-84v347q-49 -1 -75.5 -18.5t-43.5 -74.5l-81 -254h-87l92 280q27 82 82 112l-168 347h100l135 -326q16 2 46 4v322h84z" />
<glyph unicode="&#x497;" horiz-adv-x="559" d="M322 539v-225q22 -2 39 -6l100 231h93l-134 -256q40 -27 64 -89l43 -123h70v-221h-73v150h-58l-56 169q-14 42 -34 59t-54 20v-248h-83v248q-35 -3 -55 -19.5t-32 -59.5l-57 -169h-83l67 194q22 61 62 89l-128 256h97l94 -230q21 4 35 5v225h83z" />
<glyph unicode="&#x49a;" horiz-adv-x="536" d="M178 739v-322q19 0 28 -1l211 323h111l-239 -336q60 -17 102 -61t71 -127l53 -144h93v-221h-72v150h-98l-61 184q-17 51 -36 83t-44 49t-52 23t-67 7v-346h-85v739h85z" />
<glyph unicode="&#x49b;" horiz-adv-x="440" d="M164 539v-228q15 0 22 -1l144 229h104l-171 -244q80 -30 120 -137l33 -87h70v-221h-74v150h-65l-43 128q-23 68 -53 90t-87 25v-243h-85v539h85z" />
<glyph unicode="&#x4a2;" horiz-adv-x="653" d="M629 -150h-73v150h-89v353h-289v-353h-86v739h86v-315h289v315h86v-668h76v-221z" />
<glyph unicode="&#x4a3;" horiz-adv-x="525" d="M520 -150h-74v150h-85v250h-197v-250h-85v539h85v-220h197v220h85v-468h74v-221z" />
<glyph unicode="&#x4ae;" horiz-adv-x="476" d="M491 739l-210 -497v-242h-85v240l-212 499h97l159 -409l162 409h89z" />
<glyph unicode="&#x4af;" horiz-adv-x="396" d="M405 539l-165 -506v-306h-83v306l-167 506h95l116 -411l119 411h85z" />
<glyph unicode="&#x4b0;" horiz-adv-x="476" d="M423 242h-142v-242h-85v240l-1 2h-142v69h112l-181 428h97l159 -409l162 409h89l-181 -428h113v-69z" />
<glyph unicode="&#x4b1;" horiz-adv-x="396" d="M359 1h-119v-274h-83v274h-149v68h137l-155 470h95l116 -411l119 411h85l-154 -470h108v-68z" />
<glyph unicode="&#x4b2;" horiz-adv-x="490" d="M541 -150h-73v150h-72l-154 315l-151 -315h-96l193 385l-179 354h103l140 -288l134 288h96l-181 -354l161 -314h79v-221z" />
<glyph unicode="&#x4b3;" horiz-adv-x="417" d="M117 539l115 -208l87 208h91l-129 -271l-14 -1l109 -196h84v-221h-72v150h-71l-115 207l-86 -208h-91l128 271h14l-148 269h98z" />
<glyph unicode="&#x4b6;" horiz-adv-x="586" d="M55 739h85v-291q0 -82 33.5 -119t87.5 -37q62 0 144 61v386h85v-668h88v-221h-73v150h-100v272q-5 -2 -22 -11l-23 -12q-5 -3 -19.5 -9.5t-23 -9t-21.5 -6t-25.5 -5t-25.5 -1.5q-190 0 -190 219v302z" />
<glyph unicode="&#x4b7;" horiz-adv-x="496" d="M136 539v-172q0 -64 18.5 -87.5t61.5 -23.5q53 0 116 54v229h85v-468h86v-221h-73v150h-98v240q-71 -58 -140 -58q-68 0 -104.5 38.5t-36.5 140.5v178h85z" />
<glyph unicode="&#x4ba;" horiz-adv-x="591" d="M528 -1h-85v291q0 82 -33.5 119t-87.5 37q-62 0 -144 -61v-386h-85v739h85v-272q5 2 22 11l22 12q6 3 20.5 9.5t23 9t21.5 6t25.5 5t25.5 1.5q190 0 190 -219v-302z" />
<glyph unicode="&#x4bb;" horiz-adv-x="529" d="M452 0h-85v368q0 109 -68 109q-56 0 -133 -70v-407h-85v813h85l-3 -334q90 73 167 73q122 0 122 -170v-382z" />
<glyph unicode="&#x4c0;" horiz-adv-x="270" d="M177 0h-84v739h84v-739z" />
<glyph unicode="&#x4cf;" horiz-adv-x="252" d="M169 0h-86v812h86v-812z" />
<glyph unicode="&#x4d8;" horiz-adv-x="616" d="M54 307q0 28 4 53h429q0 143 -49.5 232t-153.5 89q-90 0 -187 -68l-28 69q62 36 112 53t113 17q64 0 114 -22t81 -58t50.5 -88t27 -107t7.5 -119q-1 -168 -70.5 -270.5t-198.5 -102.5q-125 0 -189 91q-62 87 -62 223v8zM312 55q73 0 117.5 65.5t54.5 176.5h-342v-9 q0 -101 43 -166q45 -67 127 -67z" />
<glyph unicode="&#x4d9;" horiz-adv-x="460" d="M41 214q0 33 4 56h285q-2 112 -31 163t-98 51q-54 0 -129 -39l-20 65q82 42 156 42q106 0 152.5 -72.5t46.5 -205.5q0 -287 -195 -287q-171 0 -171 227zM216 48q101 0 112 166h-207v-7q0 -78 20 -117q21 -42 75 -42z" />
<glyph unicode="&#x4e2;" horiz-adv-x="655" d="M159 0h-66v739h85v-562l318 562h66v-739h-85v566zM471 832h-273v60h273v-60z" />
<glyph unicode="&#x4e3;" horiz-adv-x="515" d="M144 0h-66v539h80v-382l212 382h67v-539h-80v388zM395 632h-273v60h273v-60z" />
<glyph unicode="&#x4e8;" horiz-adv-x="627" d="M580 384q0 -397 -276 -397q-260 0 -260 368q0 79 13.5 146t44 125.5t86 92t131.5 33.5q73 0 125.5 -30t81 -83.5t41.5 -116.5t13 -138zM308 58q171 0 181 279h-356q5 -279 175 -279zM314 681q-169 0 -180 -274h355q-8 274 -175 274z" />
<glyph unicode="&#x4e9;" horiz-adv-x="488" d="M41 265q0 125 54 206t154 81q69 0 115 -40t64.5 -99.5t18.5 -134.5q0 -127 -53 -209t-152 -82q-97 0 -149 78t-52 200zM244 52q52 0 82 52t36 135h-235q5 -85 34.5 -136t82.5 -51zM247 488q-53 0 -83.5 -50t-35.5 -135h234q-4 83 -33.5 134t-81.5 51z" />
<glyph unicode="&#x4ee;" horiz-adv-x="462" d="M-16 739h101l148 -387l149 387h95l-300 -739h-94l106 258zM371 832h-273v60h273v-60z" />
<glyph unicode="&#x4ef;" horiz-adv-x="433" d="M430 539l-172 -585q-29 -99 -75.5 -147.5t-128.5 -81.5l-31 69q62 28 97.5 66.5t56.5 106.5l16 52l-32 2l-156 518h93l123 -459l121 459h88zM361 632h-273v60h273v-60z" />
<glyph unicode="&#x1e80;" horiz-adv-x="763" d="M746 739l-125 -739h-67l-173 594l-174 -594h-67l-124 739h91l85 -575l159 575h68l159 -575l86 575h82zM275 947l76 41l94 -155l-56 -27z" />
<glyph unicode="&#x1e81;" horiz-adv-x="662" d="M640 539l-124 -539h-58l-126 418l-127 -418h-58l-128 539h87l82 -403l117 403h58l118 -402l77 402h82zM217 752l76 41l94 -156l-56 -27z" />
<glyph unicode="&#x1e82;" horiz-adv-x="763" d="M746 739l-125 -739h-67l-173 594l-174 -594h-67l-124 739h91l85 -575l159 575h68l159 -575l86 575h82zM328 828l92 161l68 -39l-110 -147z" />
<glyph unicode="&#x1e83;" horiz-adv-x="662" d="M640 539l-124 -539h-58l-126 418l-127 -418h-58l-128 539h87l82 -403l117 403h58l118 -402l77 402h82zM290 632l93 162l67 -38l-110 -149z" />
<glyph unicode="&#x1e84;" horiz-adv-x="763" d="M746 739l-125 -739h-67l-173 594l-174 -594h-67l-124 739h91l85 -575l159 575h68l159 -575l86 575h82zM338 863q0 -24 -15.5 -39t-37.5 -15q-25 0 -40.5 15t-15.5 39t16 40t40 16q23 0 38 -16t15 -40zM540 863q0 -24 -16.5 -39t-41.5 -15q-21 0 -37 15.5t-16 38.5 q0 24 15.5 40t37.5 16q25 0 41.5 -16t16.5 -40z" />
<glyph unicode="&#x1e85;" horiz-adv-x="662" d="M640 539l-124 -539h-58l-126 418l-127 -418h-58l-128 539h87l82 -403l117 403h58l118 -402l77 402h82zM288 700q0 -23 -14.5 -38t-35.5 -15q-24 0 -39 14.5t-15 38.5q0 25 15 40t39 15q21 0 35.5 -15.5t14.5 -39.5zM483 700q0 -24 -15 -38.5t-39 -14.5q-21 0 -35.5 14.5 t-14.5 38.5t14 39.5t36 15.5q23 0 38.5 -15.5t15.5 -39.5z" />
<glyph unicode="&#x1ef2;" horiz-adv-x="476" d="M491 739l-210 -497v-242h-85v240l-212 499h97l159 -409l162 409h89zM131 947l76 41l94 -155l-56 -27z" />
<glyph unicode="&#x1ef3;" horiz-adv-x="435" d="M432 539l-172 -585q-29 -99 -75.5 -147.5t-128.5 -81.5l-31 69q62 28 97.5 66.5t56.5 106.5l16 52l-32 2l-156 518h93l123 -459l121 459h88zM107 752l76 41l94 -156l-56 -27z" />
<glyph unicode="&#x2000;" horiz-adv-x="531" />
<glyph unicode="&#x2001;" horiz-adv-x="1062" />
<glyph unicode="&#x2002;" horiz-adv-x="531" />
<glyph unicode="&#x2003;" horiz-adv-x="1062" />
<glyph unicode="&#x2004;" horiz-adv-x="354" />
<glyph unicode="&#x2005;" horiz-adv-x="265" />
<glyph unicode="&#x2006;" horiz-adv-x="177" />
<glyph unicode="&#x2007;" horiz-adv-x="177" />
<glyph unicode="&#x2008;" horiz-adv-x="132" />
<glyph unicode="&#x2009;" horiz-adv-x="212" />
<glyph unicode="&#x200a;" horiz-adv-x="59" />
<glyph unicode="&#x2010;" horiz-adv-x="369" d="M315 291h-264v71h264v-71z" />
<glyph unicode="&#x2011;" horiz-adv-x="369" d="M315 291h-264v71h264v-71z" />
<glyph unicode="&#x2013;" horiz-adv-x="559" d="M505 291h-454v71h454v-71z" />
<glyph unicode="&#x2014;" horiz-adv-x="845" d="M791 291h-740v71h740v-71z" />
<glyph unicode="&#x2017;" horiz-adv-x="410" d="M416 -61h-422v61h422v-61zM416 -183h-422v60h422v-60z" />
<glyph unicode="&#x2018;" horiz-adv-x="175" d="M141 857l52 -44q-49 -58 -49 -109q0 -19 13 -39.5t13 -40.5t-13.5 -33.5t-35.5 -13.5q-30 0 -47.5 27t-17.5 70q0 90 85 183z" />
<glyph unicode="&#x2019;" horiz-adv-x="175" d="M64 554l-52 44q49 58 49 109q0 19 -13 39.5t-13 40.5t13.5 33.5t35.5 13.5q30 0 47.5 -27t17.5 -70q0 -90 -85 -183z" />
<glyph unicode="&#x201a;" horiz-adv-x="209" d="M84 -164l-52 44q49 58 49 109q0 19 -13 39.5t-13 40.5t13.5 33.5t35.5 13.5q30 0 47.5 -27t17.5 -70q0 -90 -85 -183z" />
<glyph unicode="&#x201b;" horiz-adv-x="164" d="M4 824l52 44q85 -93 85 -183q0 -43 -17.5 -70t-47.5 -27q-22 0 -35.5 13.5t-13.5 33.5t13 40.5t13 39.5q0 51 -49 109z" />
<glyph unicode="&#x201c;" horiz-adv-x="348" d="M141 857l52 -44q-49 -58 -49 -109q0 -19 13 -39.5t13 -40.5t-13.5 -33.5t-35.5 -13.5q-30 0 -47.5 27t-17.5 70q0 90 85 183zM331 857l52 -44q-49 -58 -49 -109q0 -19 13 -39.5t13 -40.5t-13.5 -33.5t-35.5 -13.5q-30 0 -47.5 27t-17.5 70q0 90 85 183z" />
<glyph unicode="&#x201d;" horiz-adv-x="348" d="M64 554l-52 44q49 58 49 109q0 19 -13 39.5t-13 40.5t13.5 33.5t35.5 13.5q30 0 47.5 -27t17.5 -70q0 -90 -85 -183zM255 554l-52 44q49 58 49 109q0 19 -13 39.5t-13 40.5t13.5 33.5t35.5 13.5q30 0 47.5 -27t17.5 -70q0 -90 -85 -183z" />
<glyph unicode="&#x201e;" horiz-adv-x="382" d="M84 -163l-52 44q49 58 49 109q0 19 -13 39.5t-13 40.5t13.5 33.5t35.5 13.5q30 0 47.5 -27t17.5 -70q0 -90 -85 -183zM275 -163l-52 44q49 58 49 109q0 19 -13 39.5t-13 40.5t13.5 33.5t35.5 13.5q30 0 47.5 -27t17.5 -70q0 -90 -85 -183z" />
<glyph unicode="&#x2020;" horiz-adv-x="432" d="M400 473h-145v-473h-78v473h-146v66h146v199h78v-199h145v-66z" />
<glyph unicode="&#x2021;" horiz-adv-x="432" d="M400 214h-145v-214h-78v214h-146v64h146v205h-146v64h146v192h78v-192h145v-64h-145v-205h145v-64z" />
<glyph unicode="&#x2022;" horiz-adv-x="312" d="M16 343q0 62 40 105.5t97 43.5q58 0 99 -43.5t41 -105.5q0 -61 -41 -104.5t-99 -43.5q-57 0 -97 43t-40 105z" />
<glyph unicode="&#x2026;" horiz-adv-x="594" d="M165 45q0 -25 -16.5 -42t-39.5 -17q-25 0 -41.5 17t-16.5 42t17 42t41 17q23 0 39.5 -17t16.5 -42zM377 45q0 -25 -16.5 -42t-39.5 -17q-25 0 -41.5 17t-16.5 42t17 42t41 17q23 0 39.5 -17t16.5 -42zM589 45q0 -25 -16.5 -42t-39.5 -17q-25 0 -41.5 17t-16.5 42t17 42 t41 17q23 0 39.5 -17t16.5 -42z" />
<glyph unicode="&#x202f;" horiz-adv-x="212" />
<glyph unicode="&#x2030;" horiz-adv-x="921" d="M559 590l-452 -535l-48 51l452 536zM294 550q0 -58 -35 -102.5t-95 -44.5q-59 0 -92.5 43t-33.5 104q0 55 32.5 100t96.5 45q60 0 93.5 -38.5t33.5 -106.5zM226 550q0 37 -17 60t-43 23q-30 0 -44.5 -25.5t-14.5 -57.5q0 -36 15 -60.5t44 -24.5q30 0 45 25t15 60z M577 133q0 -58 -33.5 -102.5t-94.5 -44.5q-59 0 -93.5 43t-34.5 104q0 55 32.5 100t96.5 45q61 0 94 -38t33 -107zM509 133q0 38 -16.5 60.5t-43.5 22.5q-30 0 -44.5 -25t-14.5 -58q0 -36 15 -60t44 -24q30 0 45 25t15 59zM880 133q0 -59 -33.5 -103t-94.5 -44 q-59 0 -93.5 43t-34.5 104q0 55 32.5 100t96.5 45q61 0 94 -38t33 -107zM812 133q0 38 -16.5 60.5t-43.5 22.5q-30 0 -44 -25t-14 -58q0 -36 14.5 -60t43.5 -24q31 0 45.5 24.5t14.5 59.5z" />
<glyph unicode="&#x2039;" horiz-adv-x="319" d="M265 471l-115 -199l115 -196l-67 -30l-154 226l154 226z" />
<glyph unicode="&#x203a;" horiz-adv-x="319" d="M171 272l-117 197l66 29l155 -226l-156 -225l-65 27z" />
<glyph unicode="&#x2044;" horiz-adv-x="129" d="M309 685l-442 -659l-54 49l444 661z" />
<glyph unicode="&#x205f;" horiz-adv-x="265" />
<glyph unicode="&#x20ac;" horiz-adv-x="506" d="M393 421h-197q-1 -16 -1 -50q0 -23 1 -34h197v-64h-193q12 -102 49.5 -159t102.5 -57q48 0 107 31l22 -70q-75 -32 -136 -32q-106 0 -164.5 77t-72.5 210h-64v64h59v28q0 37 1 56h-60v66h67q19 121 78 193t164 72q60 0 122 -29l-23 -72q-49 29 -95 29q-127 0 -155 -193 h191v-66z" />
<glyph unicode="&#x20b4;" horiz-adv-x="474" d="M413 268l-242 10q-33 -46 -33 -103q0 -58 32 -89t83 -31q83 0 162 48l21 -68q-92 -48 -191 -48q-82 0 -135.5 44.5t-53.5 139.5q0 63 25 110l-37 2l4 56l72 -3q27 29 104 86l-174 7l4 55l232 -9q46 49 46 108q0 44 -24.5 72.5t-77.5 28.5q-64 0 -125 -32l-19 67 q78 33 149 33q80 0 128.5 -38.5t48.5 -123.5q0 -66 -35 -119l46 -1l-3 -56l-91 3q-19 -17 -56 -45t-51 -40l194 -8z" />
<glyph unicode="&#x2116;" horiz-adv-x="830" d="M805 588q0 -30 -6 -58t-19.5 -56t-41.5 -45t-66 -17q-32 0 -56.5 13t-38.5 32t-22.5 44.5t-11 45.5t-2.5 40q0 22 3.5 43.5t12.5 45.5t23.5 42t39 30t55.5 12q39 0 66.5 -17.5t40.5 -45.5t18 -54.5t5 -54.5zM735 583q0 25 -4.5 48t-20 44t-39.5 21q-60 0 -60 -106 q0 -18 2.5 -35t8.5 -36.5t19 -31.5t32 -12q33 0 47.5 32.5t14.5 75.5zM805 283h-258v72h258v-72zM484 0h-72l-232 553v-553h-77v739h73l231 -543v543h77v-739z" />
<glyph unicode="&#x2122;" horiz-adv-x="692" d="M278 757h-107v-357h-64v357h-108v55h279v-55zM659 401h-66l-13 300l-95 -300h-34l-97 299l-16 -299h-60l24 411h63l104 -313l105 313h60z" />
<glyph unicode="&#x212e;" horiz-adv-x="644" d="M599 377h-456v-8q0 -87 21 -154q22 -70 73.5 -114.5t128.5 -44.5q95 0 199 67l28 -68q-64 -36 -116 -53t-120 -17t-121 22t-86.5 58t-55.5 88t-30 107q-8 50 -8 107v13q1 167 74 269.5t209 102.5q132 0 199 -90t67 -229q0 -27 -6 -56zM333 681q-79 0 -128 -65t-60 -176 h372v8q0 102 -47 166q-49 67 -137 67z" />
<glyph unicode="&#x215b;" horiz-adv-x="670" d="M398 104q0 63 64 113q-53 39 -53 100q0 49 32 77t77 28q46 0 79 -27.5t33 -75.5q0 -61 -52 -105q63 -43 63 -107q0 -58 -35 -86.5t-87 -28.5q-54 0 -87.5 28t-33.5 84zM576 685l-442 -659l-54 49l444 661zM187 328h-71l1 337l-91 -52l-20 51l124 84h57v-420zM572 108 q0 25 -16.5 42t-49.5 37q-40 -36 -40 -80q0 -28 15.5 -44.5t37.5 -16.5q24 0 38.5 16.5t14.5 45.5zM475 317q0 -23 13.5 -39t39.5 -33q36 34 36 69q0 25 -12.5 40t-32.5 15q-19 0 -31.5 -14.5t-12.5 -37.5z" />
<glyph unicode="&#x215c;" horiz-adv-x="678" d="M407 104q0 62 63 113q-53 40 -53 100q0 49 32.5 77t77.5 28q46 0 79 -27.5t33 -75.5q0 -58 -51 -105q62 -43 62 -107q0 -58 -35 -86.5t-87 -28.5q-53 0 -87 28t-34 84zM586 685l-442 -659l-54 49l444 661zM245 452q0 -65 -39.5 -98.5t-108.5 -33.5q-41 0 -82 12l15 59 q37 -14 65 -14q34 0 55 18.5t21 53.5q0 73 -85 73h-34l-1 50h22q33 0 57.5 18t24.5 52q0 23 -13.5 36t-36.5 13q-30 0 -65 -19l-19 53q53 25 100 25q49 0 80 -24.5t31 -71.5q0 -62 -53 -96q66 -25 66 -106zM581 108q0 25 -16.5 42t-49.5 38q-40 -40 -40 -81 q0 -28 15.5 -44.5t37.5 -16.5q24 0 38.5 16.5t14.5 45.5zM484 317q0 -38 52 -72q37 33 37 69q0 25 -12.5 40t-32.5 15q-19 0 -31.5 -14.5t-12.5 -37.5z" />
<glyph unicode="&#x215d;" horiz-adv-x="698" d="M426 104q0 59 63 114q-52 39 -52 99q0 49 32.5 77t77.5 28t78 -27.5t33 -75.5q0 -61 -52 -105q64 -43 64 -107q0 -58 -35.5 -86.5t-86.5 -28.5q-54 0 -88 28t-34 84zM598 685l-442 -659l-54 49l444 661zM96 686l-5 -96q15 3 30 3q55 0 88 -32t33 -94q0 -71 -39 -109 t-110 -38q-51 0 -84 12l12 57q34 -12 66 -12q82 0 82 87q0 78 -78 78q-19 0 -63 -11l13 211h187v-56h-132zM601 108q0 25 -16.5 42.5t-50.5 37.5q-41 -41 -41 -81q0 -28 16 -44.5t39 -16.5q24 0 38.5 16.5t14.5 45.5zM503 317q0 -23 13.5 -39t39.5 -33q37 35 37 69 q0 24 -13 39.5t-32 15.5t-32 -14.5t-13 -37.5z" />
<glyph unicode="&#x215e;" horiz-adv-x="620" d="M348 104q0 61 63 114q-52 39 -52 99q0 49 31.5 77t78.5 28q46 0 79 -27.5t33 -75.5q0 -57 -53 -104q64 -43 64 -108q0 -58 -35.5 -86.5t-87.5 -28.5q-54 0 -87.5 28t-33.5 84zM519 685l-442 -659l-54 49l444 661zM149 684h-150v58h224l6 -42l-135 -372h-77zM523 108 q0 25 -16.5 42.5t-50.5 37.5q-41 -41 -41 -81q0 -28 15.5 -44.5t38.5 -16.5t38.5 16.5t15.5 45.5zM425 317q0 -23 13.5 -39t39.5 -33q37 33 37 69q0 25 -13 40t-33 15q-18 0 -31 -14.5t-13 -37.5z" />
<glyph unicode="&#x2190;" horiz-adv-x="853" d="M327 125l-42 -57l-260 238v56l260 236l42 -57l-195 -172h633v-72h-633z" />
<glyph unicode="&#x2191;" horiz-adv-x="533" d="M97 424l-54 43l196 319h53l195 -319l-53 -43l-133 232v-775h-72v772z" />
<glyph unicode="&#x2192;" horiz-adv-x="793" d="M463 541l42 56l260 -237v-56l-260 -236l-42 57l195 172h-633v72h633z" />
<glyph unicode="&#x2193;" horiz-adv-x="533" d="M434 241l53 -42l-195 -318h-54l-195 318l54 42l132 -229v774h72v-777z" />
<glyph unicode="&#x2194;" horiz-adv-x="821" d="M491 541l41 56l260 -237v-56l-260 -236l-41 57l196 172h-553l196 -172l-42 -57l-260 237v56l260 236l42 -56l-196 -172h553z" />
<glyph unicode="&#x2195;" horiz-adv-x="533" d="M97 424l-54 43l196 319h53l195 -319l-53 -43l-133 232v-686l133 232l53 -42l-195 -319h-54l-195 319l54 42l132 -229v680z" />
<glyph unicode="&#x2202;" horiz-adv-x="512" d="M110 711l-7 68q31 6 64 6q131 0 204 -110t73 -292q0 -181 -58 -288.5t-164 -107.5q-86 0 -135 65.5t-49 157.5q0 105 54 170.5t150 65.5q60 0 113 -31q-2 58 -12.5 107.5t-31.5 95t-59 72t-90 26.5q-24 0 -52 -5zM247 378q-58 0 -92 -44.5t-34 -119.5q0 -62 28 -109 t76 -47q61 0 93.5 76.5t36.5 209.5q-54 34 -108 34z" />
<glyph unicode="&#x220f;" horiz-adv-x="578" d="M575 667h-99v-817h-82v817h-210v-817h-85v817h-97v72h573v-72z" />
<glyph unicode="&#x2211;" horiz-adv-x="486" d="M470 -150h-441l-8 60l223 387l-205 380l9 61h392v-70h-297l201 -370l-216 -378h342v-70z" />
<glyph unicode="&#x2212;" horiz-adv-x="488" d="M439 250h-391v72h391v-72z" />
<glyph unicode="&#x221a;" horiz-adv-x="368" d="M47 470h-79v69h142l45 -280l91 614h277l-1 -70l-206 -1l-107 -657l-98 -1z" />
<glyph unicode="&#x221e;" horiz-adv-x="798" d="M585 13q-118 0 -189 151q-78 -148 -183 -148q-77 0 -125.5 67t-48.5 168q0 102 48.5 170.5t125.5 68.5q118 0 189 -151q79 151 183 151q79 0 126 -67.5t47 -173.5q0 -101 -48 -168.5t-125 -67.5zM114 251q0 -71 28 -117t74 -46q48 0 81 39t66 122q-33 89 -67 128t-80 39 q-47 0 -74.5 -46t-27.5 -119zM683 249q0 73 -27 119.5t-75 46.5q-46 0 -78.5 -39t-66.5 -122q34 -92 65 -130t80 -38q48 0 75 45t27 118z" />
<glyph unicode="&#x222b;" horiz-adv-x="290" d="M327 884l-11 -70q-35 10 -64 10q-87 0 -87 -144q0 -79 21 -345t21 -384q0 -110 -40 -167.5t-128 -57.5q-35 0 -81 12l12 72q40 -11 65 -11q46 0 65 37.5t19 109.5q0 97 -20.5 372t-20.5 359q0 109 40 164t128 55q46 0 81 -12z" />
<glyph unicode="&#x2248;" horiz-adv-x="496" d="M442 153h-391v72h391v-72zM426 434l23 -64q-62 -57 -126 -57q-37 0 -87 29t-83 29q-43 0 -92 -37l-21 65q62 46 118 46q42 0 93.5 -29.5t76.5 -29.5q11 0 21.5 3t22.5 9.5t18.5 10.5t19.5 13.5t16 11.5z" />
<glyph unicode="&#x2260;" horiz-adv-x="487" d="M451 153h-247l-143 -212l-54 49l105 163h-52v72h94l86 121h-180v72h225l156 231l52 -50l-122 -181h80v-72h-122l-82 -121h204v-72z" />
<glyph unicode="&#x2264;" horiz-adv-x="487" d="M390 118l-325 218l326 221l33 -65l-230 -156l232 -155zM421 22h-359v69h359v-69z" />
<glyph unicode="&#x2265;" horiz-adv-x="487" d="M98 556l332 -219l-333 -220l-32 65l235 155l-238 156zM416 22h-358v69h358v-69z" />
<glyph unicode="&#x25ca;" horiz-adv-x="383" d="M25 369l115 370h105l112 -370l-113 -369h-106zM106 369l86 -301l85 301l-85 301z" />
<glyph horiz-adv-x="257" d="M172 0h-86v539h86v-539zM183 713q0 -25 -16 -41t-39 -16q-24 0 -39 16t-15 41t15.5 41.5t38.5 16.5t39 -16.5t16 -41.5z" />
<glyph horiz-adv-x="509" d="M259 962l140 -121l-40 -40l-99 80l-97 -80l-41 35z" />
<glyph horiz-adv-x="509" d="M346 953l54 -6q-8 -68 -44.5 -106.5t-95.5 -38.5t-96 38.5t-43 106.5l54 6q21 -92 85 -92q66 0 86 92z" />
<glyph horiz-adv-x="509" d="M215 828l92 161l68 -39l-110 -147z" />
<glyph horiz-adv-x="509" d="M202 863q0 -24 -15.5 -39t-37.5 -15q-25 0 -40.5 15t-15.5 39t16 40t40 16q23 0 38 -16t15 -40zM404 863q0 -24 -16.5 -39t-41.5 -15q-21 0 -37 15.5t-16 38.5q0 24 15.5 40t37.5 16q25 0 41.5 -16t16.5 -40z" />
<glyph horiz-adv-x="509" d="M150 947l76 41l94 -155l-56 -27z" />
<glyph horiz-adv-x="297" d="M152 862l96 79l39 -36l-103 -101h-64l-106 99l39 38z" />
<glyph horiz-adv-x="282" d="M251 897l33 -39q-45 -50 -95 -50q-26 0 -55.5 15t-46.5 15q-24 0 -62 -30l-32 41q52 49 97 49q25 0 54.5 -14.5t47.5 -14.5q24 0 59 28z" />
<glyph horiz-adv-x="189" d="M193 802q0 -48 -29 -81.5t-74 -33.5q-44 0 -72.5 33t-28.5 82q0 48 29 81t72 33q45 0 74 -33.5t29 -80.5zM138 802q0 27 -12.5 45.5t-35.5 18.5t-35 -18.5t-12 -45.5t12 -45t35 -18t35.5 18t12.5 45z" />
<glyph horiz-adv-x="450" d="M171 -136l52 996h66l-54 -996h-64z" />
<glyph horiz-adv-x="236" d="M132 512l-45 37q42 49 42 94q0 17 -10.5 34.5t-10.5 34.5q0 16 11.5 27.5t29.5 11.5q24 0 38.5 -23t14.5 -60q0 -74 -70 -156z" />
</font>
</defs>
</svg>
